  0
SECTION
  2
HEADER
  9
$ACADVER
  1
AC1015
  9
$ACADMAINTVER
 70
     6
  9
$DWGCODEPAGE
  3
ANSI_1252
  9
$INSBASE
 10
0.0
 20
0.0
 30
0.0
  9
$EXTMIN
 10
1.000000000000000E+20
 20
1.000000000000000E+20
 30
1.000000000000000E+20
  9
$EXTMAX
 10
-1.000000000000000E+20
 20
-1.000000000000000E+20
 30
-1.000000000000000E+20
  9
$LIMMIN
 10
0.0
 20
0.0
  9
$LIMMAX
 10
12.0
 20
9.0
  9
$ORTHOMODE
 70
     0
  9
$REGENMODE
 70
     1
  9
$FILLMODE
 70
     1
  9
$QTEXTMODE
 70
     0
  9
$MIRRTEXT
 70
     1
  9
$LTSCALE
 40
1.0
  9
$ATTMODE
 70
     1
  9
$TEXTSIZE
 40
0.2
  9
$TRACEWID
 40
0.05
  9
$TEXTSTYLE
  7
Standard
  9
$CLAYER
  8
0
  9
$CELTYPE
  6
ByLayer
  9
$CECOLOR
 62
   256
  9
$CELTSCALE
 40
1.0
  9
$DISPSILH
 70
     0
  9
$DIMSCALE
 40
1.0
  9
$DIMASZ
 40
0.1181102362204725
  9
$DIMEXO
 40
0.0625
  9
$DIMDLI
 40
0.38
  9
$DIMRND
 40
0.0
  9
$DIMDLE
 40
0.0
  9
$DIMEXE
 40
0.18
  9
$DIMTP
 40
0.0
  9
$DIMTM
 40
0.0
  9
$DIMTXT
 40
0.0895833333333333
  9
$DIMCEN
 40
0.09
  9
$DIMTSZ
 40
0.0
  9
$DIMTOL
 70
     0
  9
$DIMLIM
 70
     0
  9
$DIMTIH
 70
     1
  9
$DIMTOH
 70
     1
  9
$DIMSE1
 70
     0
  9
$DIMSE2
 70
     0
  9
$DIMTAD
 70
     0
  9
$DIMZIN
 70
     0
  9
$DIMBLK
  1

  9
$DIMASO
 70
     1
  9
$DIMSHO
 70
     1
  9
$DIMPOST
  1

  9
$DIMAPOST
  1

  9
$DIMALT
 70
     0
  9
$DIMALTD
 70
     2
  9
$DIMALTF
 40
25.4
  9
$DIMLFAC
 40
1.0
  9
$DIMTOFL
 70
     0
  9
$DIMTVP
 40
0.0
  9
$DIMTIX
 70
     0
  9
$DIMSOXD
 70
     0
  9
$DIMSAH
 70
     0
  9
$DIMBLK1
  1

  9
$DIMBLK2
  1

  9
$DIMSTYLE
  2
Standard
  9
$DIMCLRD
 70
     0
  9
$DIMCLRE
 70
     0
  9
$DIMCLRT
 70
     0
  9
$DIMTFAC
 40
1.0
  9
$DIMGAP
 40
0.09
  9
$DIMJUST
 70
     0
  9
$DIMSD1
 70
     0
  9
$DIMSD2
 70
     0
  9
$DIMTOLJ
 70
     1
  9
$DIMTZIN
 70
     0
  9
$DIMALTZ
 70
     0
  9
$DIMALTTZ
 70
     0
  9
$DIMUPT
 70
     0
  9
$DIMDEC
 70
     4
  9
$DIMTDEC
 70
     4
  9
$DIMALTU
 70
     2
  9
$DIMALTTD
 70
     2
  9
$DIMTXSTY
  7
Standard
  9
$DIMAUNIT
 70
     0
  9
$DIMADEC
 70
     0
  9
$DIMALTRND
 40
0.0
  9
$DIMAZIN
 70
     0
  9
$DIMDSEP
 70
    46
  9
$DIMATFIT
 70
     3
  9
$DIMFRAC
 70
     0
  9
$DIMLDRBLK
  1

  9
$DIMLUNIT
 70
     2
  9
$DIMLWD
 70
    -2
  9
$DIMLWE
 70
    -2
  9
$DIMTMOVE
 70
     0
  9
$LUNITS
 70
     2
  9
$LUPREC
 70
     4
  9
$SKETCHINC
 40
0.1
  9
$FILLETRAD
 40
0.5
  9
$AUNITS
 70
     0
  9
$AUPREC
 70
     0
  9
$MENU
  1
.
  9
$ELEVATION
 40
0.0
  9
$PELEVATION
 40
0.0
  9
$THICKNESS
 40
0.0
  9
$LIMCHECK
 70
     0
  9
$CHAMFERA
 40
0.5
  9
$CHAMFERB
 40
0.5
  9
$CHAMFERC
 40
1.0
  9
$CHAMFERD
 40
0.0
  9
$SKPOLY
 70
     0
  9
$TDCREATE
 40
2455071.438915463
  9
$TDUCREATE
 40
2455071.73058213
  9
$TDUPDATE
 40
2455071.438915474
  9
$TDUUPDATE
 40
2455071.730582141
  9
$TDINDWG
 40
0.0000000116
  9
$TDUSRTIMER
 40
0.0000000116
  9
$USRTIMER
 70
     1
  9
$ANGBASE
 50
0.0
  9
$ANGDIR
 70
     0
  9
$PDMODE
 70
     0
  9
$PDSIZE
 40
0.0
  9
$PLINEWID
 40
0.0
  9
$SPLFRAME
 70
     0
  9
$SPLINETYPE
 70
     6
  9
$SPLINESEGS
 70
     8
  9
$HANDSEED
  5
1DA
  9
$SURFTAB1
 70
     6
  9
$SURFTAB2
 70
     6
  9
$SURFTYPE
 70
     6
  9
$SURFU
 70
     6
  9
$SURFV
 70
     6
  9
$UCSBASE
  2

  9
$UCSNAME
  2

  9
$UCSORG
 10
0.0
 20
0.0
 30
0.0
  9
$UCSXDIR
 10
1.0
 20
0.0
 30
0.0
  9
$UCSYDIR
 10
0.0
 20
1.0
 30
0.0
  9
$UCSORTHOREF
  2

  9
$UCSORTHOVIEW
 70
     0
  9
$UCSORGTOP
 10
0.0
 20
0.0
 30
0.0
  9
$UCSORGBOTTOM
 10
0.0
 20
0.0
 30
0.0
  9
$UCSORGLEFT
 10
0.0
 20
0.0
 30
0.0
  9
$UCSORGRIGHT
 10
0.0
 20
0.0
 30
0.0
  9
$UCSORGFRONT
 10
0.0
 20
0.0
 30
0.0
  9
$UCSORGBACK
 10
0.0
 20
0.0
 30
0.0
  9
$PUCSBASE
  2

  9
$PUCSNAME
  2

  9
$PUCSORG
 10
0.0
 20
0.0
 30
0.0
  9
$PUCSXDIR
 10
1.0
 20
0.0
 30
0.0
  9
$PUCSYDIR
 10
0.0
 20
1.0
 30
0.0
  9
$PUCSORTHOREF
  2

  9
$PUCSORTHOVIEW
 70
     0
  9
$PUCSORGTOP
 10
0.0
 20
0.0
 30
0.0
  9
$PUCSORGBOTTOM
 10
0.0
 20
0.0
 30
0.0
  9
$PUCSORGLEFT
 10
0.0
 20
0.0
 30
0.0
  9
$PUCSORGRIGHT
 10
0.0
 20
0.0
 30
0.0
  9
$PUCSORGFRONT
 10
0.0
 20
0.0
 30
0.0
  9
$PUCSORGBACK
 10
0.0
 20
0.0
 30
0.0
  9
$USERI1
 70
     0
  9
$USERI2
 70
     0
  9
$USERI3
 70
     0
  9
$USERI4
 70
     0
  9
$USERI5
 70
     0
  9
$USERR1
 40
0.0
  9
$USERR2
 40
0.0
  9
$USERR3
 40
0.0
  9
$USERR4
 40
0.0
  9
$USERR5
 40
0.0
  9
$WORLDVIEW
 70
     1
  9
$SHADEDGE
 70
     3
  9
$SHADEDIF
 70
    70
  9
$TILEMODE
 70
     1
  9
$MAXACTVP
 70
    64
  9
$PINSBASE
 10
0.0
 20
0.0
 30
0.0
  9
$PLIMCHECK
 70
     0
  9
$PEXTMIN
 10
1.000000000000000E+20
 20
1.000000000000000E+20
 30
1.000000000000000E+20
  9
$PEXTMAX
 10
-1.000000000000000E+20
 20
-1.000000000000000E+20
 30
-1.000000000000000E+20
  9
$PLIMMIN
 10
0.0
 20
0.0
  9
$PLIMMAX
 10
12.0
 20
9.0
  9
$UNITMODE
 70
     0
  9
$VISRETAIN
 70
     1
  9
$PLINEGEN
 70
     0
  9
$PSLTSCALE
 70
     1
  9
$TREEDEPTH
 70
  3020
  9
$CMLSTYLE
  2
Standard
  9
$CMLJUST
 70
     0
  9
$CMLSCALE
 40
1.0
  9
$PROXYGRAPHICS
 70
     1
  9
$MEASUREMENT
 70
     0
  9
$CELWEIGHT
370
    -1
  9
$ENDCAPS
280
     0
  9
$JOINSTYLE
280
     0
  9
$LWDISPLAY
290
     0
  9
$INSUNITS
 70
     1
  9
$HYPERLINKBASE
  1

  9
$STYLESHEET
  1

  9
$XEDIT
290
     1
  9
$CEPSNTYPE
380
     0
  9
$PSTYLEMODE
290
     1
  9
$FINGERPRINTGUID
  2
{6B5CA047-2D87-43F6-8546-FD1F73764105}
  9
$VERSIONGUID
  2
{FAEB1C32-E019-11D5-929B-00C0DF256EC4}
  9
$EXTNAMES
290
     1
  9
$PSVPSCALE
 40
0.0
  9
$OLESTARTUP
290
     0
  0
ENDSEC
  0
SECTION
  2
CLASSES
  0
CLASS
  1
ACDBDICTIONARYWDFLT
  2
AcDbDictionaryWithDefault
  3
ObjectDBX Classes
 90
        0
280
     0
281
     0
  0
CLASS
  1
VISUALSTYLE
  2
AcDbVisualStyle
  3
ObjectDBX Classes
 90
     4095
280
     0
281
     0
  0
CLASS
  1
SCALE
  2
AcDbScale
  3
ObjectDBX Classes
 90
     1153
280
     0
281
     0
  0
CLASS
  1
DICTIONARYVAR
  2
AcDbDictionaryVar
  3
ObjectDBX Classes
 90
        0
280
     0
281
     0
  0
CLASS
  1
ACDBPLACEHOLDER
  2
AcDbPlaceHolder
  3
ObjectDBX Classes
 90
        0
280
     0
281
     0
  0
CLASS
  1
LAYOUT
  2
AcDbLayout
  3
ObjectDBX Classes
 90
        0
280
     0
281
     0
  0
ENDSEC
  0
SECTION
  2
TABLES
  0
TABLE
  2
VPORT
  5
8
330
0
100
AcDbSymbolTable
 70
     1
  0
VPORT
  5
29
330
8
100
AcDbSymbolTableRecord
100
AcDbViewportTableRecord
  2
*Active
 70
     0
 10
0.0
 20
0.0
 11
1.0
 21
1.0
 12
10.42990654205607
 22
4.5
 13
0.0
 23
0.0
 14
0.5
 24
0.5
 15
0.5
 25
0.5
 16
0.0
 26
0.0
 36
1.0
 17
0.0
 27
0.0
 37
0.0
 40
9.0
 41
1.972972972850329
 42
50.0
 43
0.0
 44
0.0
 50
0.0
 51
0.0
 71
     0
 72
   100
 73
     1
 74
     3
 75
     0
 76
     0
 77
     0
 78
     0
281
     0
 65
     1
110
0.0
120
0.0
130
0.0
111
1.0
121
0.0
131
0.0
112
0.0
122
1.0
132
0.0
 79
     0
146
0.0
  0
ENDTAB
  0
TABLE
  2
LTYPE
  5
5
330
0
100
AcDbSymbolTable
 70
     1
  0
LTYPE
  5
14
330
5
100
AcDbSymbolTableRecord
100
AcDbLinetypeTableRecord
  2
ByBlock
 70
     0
  3

 72
    65
 73
     0
 40
0.0
  0
LTYPE
  5
15
330
5
100
AcDbSymbolTableRecord
100
AcDbLinetypeTableRecord
  2
ByLayer
 70
     0
  3

 72
    65
 73
     0
 40
0.0
  0
LTYPE
  5
16
330
5
100
AcDbSymbolTableRecord
100
AcDbLinetypeTableRecord
  2
Continuous
 70
     0
  3
Solid line
 72
    65
 73
     0
 40
0.0
  0
ENDTAB
  0
TABLE
  2
LAYER
  5
2
330
0
100
AcDbSymbolTable
 70
     4
  0
LAYER
  5
10
330
2
100
AcDbSymbolTableRecord
100
AcDbLayerTableRecord
  2
0
 70
     0
 62
     7
  6
Continuous
370
    -3
390
F
  0
LAYER
  5
5D
330
2
100
AcDbSymbolTableRecord
100
AcDbLayerTableRecord
  2
VISIBLE
 70
     0
 62
     7
  6
Continuous
370
     0
390
F
  0
LAYER
  5
6B
330
2
100
AcDbSymbolTableRecord
100
AcDbLayerTableRecord
  2
DIMENSIONS
 70
     0
 62
     7
  6
Continuous
370
     0
390
F
  0
LAYER
  5
15D
330
2
100
AcDbSymbolTableRecord
100
AcDbLayerTableRecord
  2
CONTINUOUS
 70
     0
 62
     7
  6
Continuous
370
     0
390
F
  0
ENDTAB
  0
TABLE
  2
STYLE
  5
3
330
0
100
AcDbSymbolTable
 70
     1
  0
STYLE
  5
11
330
3
100
AcDbSymbolTableRecord
100
AcDbTextStyleTableRecord
  2
Standard
 70
     0
 40
0.125
 41
1.0
 50
0.0
 71
     0
 42
0.2
  3
txt
  4

1001
ACAD
1000
Arial
1071
        0
  0
ENDTAB
  0
TABLE
  2
VIEW
  5
6
330
0
100
AcDbSymbolTable
 70
     0
  0
ENDTAB
  0
TABLE
  2
UCS
  5
7
330
0
100
AcDbSymbolTable
 70
     0
  0
ENDTAB
  0
TABLE
  2
APPID
  5
9
330
0
100
AcDbSymbolTable
 70
     1
  0
APPID
  5
12
330
9
100
AcDbSymbolTableRecord
100
AcDbRegAppTableRecord
  2
ACAD
 70
     0
  0
ENDTAB
  0
TABLE
  2
DIMSTYLE
  5
A
330
0
100
AcDbSymbolTable
 70
     1
100
AcDbDimStyleTable
  0
DIMSTYLE
105
27
102
{ACAD_REACTORS
330
6C
330
7A
330
88
330
92
330
9C
330
A6
330
B0
330
BA
330
C4
330
CE
330
D8
330
E2
330
EC
330
F6
330
100
330
10E
330
120
330
12E
102
}
330
A
100
AcDbSymbolTableRecord
100
AcDbDimStyleTableRecord
  2
Standard
 70
     0
340
11
  0
ENDTAB
  0
TABLE
  2
BLOCK_RECORD
  5
1
330
0
100
AcDbSymbolTable
 70
    20
  0
BLOCK_RECORD
  5
1F
330
1
100
AcDbSymbolTableRecord
100
AcDbBlockTableRecord
  2
*Model_Space
340
22
  0
BLOCK_RECORD
  5
1B
330
1
100
AcDbSymbolTableRecord
100
AcDbBlockTableRecord
  2
*Paper_Space
340
1E
  0
BLOCK_RECORD
  5
23
330
1
100
AcDbSymbolTableRecord
100
AcDbBlockTableRecord
  2
*Paper_Space0
340
26
  0
BLOCK_RECORD
  5
6D
330
1
100
AcDbSymbolTableRecord
100
AcDbBlockTableRecord
  2
D1
340
0
  0
BLOCK_RECORD
  5
7B
330
1
100
AcDbSymbolTableRecord
100
AcDbBlockTableRecord
  2
D2
340
0
  0
BLOCK_RECORD
  5
89
330
1
100
AcDbSymbolTableRecord
100
AcDbBlockTableRecord
  2
D3
340
0
  0
BLOCK_RECORD
  5
93
330
1
100
AcDbSymbolTableRecord
100
AcDbBlockTableRecord
  2
D4
340
0
  0
BLOCK_RECORD
  5
9D
330
1
100
AcDbSymbolTableRecord
100
AcDbBlockTableRecord
  2
D5
340
0
  0
BLOCK_RECORD
  5
A7
330
1
100
AcDbSymbolTableRecord
100
AcDbBlockTableRecord
  2
D6
340
0
  0
BLOCK_RECORD
  5
B1
330
1
100
AcDbSymbolTableRecord
100
AcDbBlockTableRecord
  2
D7
340
0
  0
BLOCK_RECORD
  5
BB
330
1
100
AcDbSymbolTableRecord
100
AcDbBlockTableRecord
  2
D8
340
0
  0
BLOCK_RECORD
  5
C5
330
1
100
AcDbSymbolTableRecord
100
AcDbBlockTableRecord
  2
D9
340
0
  0
BLOCK_RECORD
  5
CF
330
1
100
AcDbSymbolTableRecord
100
AcDbBlockTableRecord
  2
D10
340
0
  0
BLOCK_RECORD
  5
D9
330
1
100
AcDbSymbolTableRecord
100
AcDbBlockTableRecord
  2
D11
340
0
  0
BLOCK_RECORD
  5
E3
330
1
100
AcDbSymbolTableRecord
100
AcDbBlockTableRecord
  2
D12
340
0
  0
BLOCK_RECORD
  5
ED
330
1
100
AcDbSymbolTableRecord
100
AcDbBlockTableRecord
  2
D13
340
0
  0
BLOCK_RECORD
  5
F7
330
1
100
AcDbSymbolTableRecord
100
AcDbBlockTableRecord
  2
D14
340
0
  0
BLOCK_RECORD
  5
101
330
1
100
AcDbSymbolTableRecord
100
AcDbBlockTableRecord
  2
D15
340
0
  0
BLOCK_RECORD
  5
10F
330
1
100
AcDbSymbolTableRecord
100
AcDbBlockTableRecord
  2
D16
340
0
  0
BLOCK_RECORD
  5
121
330
1
100
AcDbSymbolTableRecord
100
AcDbBlockTableRecord
  2
D17
340
0
  0
BLOCK_RECORD
  5
12F
330
1
100
AcDbSymbolTableRecord
100
AcDbBlockTableRecord
  2
D18
340
0
  0
BLOCK_RECORD
  5
15F
330
1
100
AcDbSymbolTableRecord
100
AcDbBlockTableRecord
  2
BLOCK3
340
0
102
{BLKREFS
331
15E
102
}
  0
ENDTAB
  0
ENDSEC
  0
SECTION
  2
BLOCKS
  0
BLOCK
  5
20
330
1F
100
AcDbEntity
  8
0
100
AcDbBlockBegin
  2
*Model_Space
 70
     0
 10
0.0
 20
0.0
 30
0.0
  3
*Model_Space
  1

  0
ENDBLK
  5
21
330
1F
100
AcDbEntity
  8
0
100
AcDbBlockEnd
  0
BLOCK
  5
1C
330
1B
100
AcDbEntity
 67
     1
  8
0
100
AcDbBlockBegin
  2
*Paper_Space
 70
     0
 10
0.0
 20
0.0
 30
0.0
  3
*Paper_Space
  1

  0
ENDBLK
  5
1D
330
1B
100
AcDbEntity
 67
     1
  8
0
100
AcDbBlockEnd
  0
BLOCK
  5
24
330
23
100
AcDbEntity
  8
0
100
AcDbBlockBegin
  2
*Paper_Space0
 70
     0
 10
0.0
 20
0.0
 30
0.0
  3
*Paper_Space0
  1

  0
ENDBLK
  5
25
330
23
100
AcDbEntity
  8
0
100
AcDbBlockEnd
  0
BLOCK
  5
6E
330
6D
100
AcDbEntity
  8
0
100
AcDbBlockBegin
  2
D1
 70
     0
 10
0.0
 20
0.0
 30
0.0
  3
D1
  1

  0
MTEXT
  5
70
330
6D
100
AcDbEntity
  8
DIMENSIONS
100
AcDbMText
 10
7.128274271807324
 20
9.110460776982343
 30
0.0
 40
0.0895833333333333
 41
0.0
 71
     5
 72
     1
  1
{\fArial|b0|i0|c0|p0;4.000 "}{\fArial|b0|i0|c0|p0;}
 73
     1
 44
1.0
  0
MTEXT
  5
71
330
6D
100
AcDbEntity
  8
DIMENSIONS
100
AcDbMText
 10
7.128274271807324
 20
9.110460776982343
 30
0.0
 40
0.0895833333333333
 41
0.0
 71
     5
 72
     1
  1
{\fArial|b0|i0|c0|p0;}
 73
     1
 44
1.0
  0
MTEXT
  5
72
330
6D
100
AcDbEntity
  8
DIMENSIONS
100
AcDbMText
 10
7.128274271807324
 20
9.110460776982343
 30
0.0
 40
0.0895833333333333
 41
0.0
 71
     5
 72
     1
  1
{\fArial|b0|i0|c0|p0;}
 73
     1
 44
1.0
  0
LINE
  5
73
330
6D
100
AcDbEntity
  8
DIMENSIONS
100
AcDbLine
 10
5.128274271807324
 20
7.37952080674059
 30
0.0
 11
5.128274271807324
 21
9.126700934462658
 31
0.0
  0
LINE
  5
74
330
6D
100
AcDbEntity
  8
DIMENSIONS
100
AcDbLine
 10
9.128274271807324
 20
7.37952080674059
 30
0.0
 11
9.128274271807324
 21
9.126700934462658
 31
0.0
  0
LWPOLYLINE
  5
75
330
6D
100
AcDbEntity
  8
DIMENSIONS
100
AcDbPolyline
 90
        4
 70
     0
 43
0.0
 10
5.128274271807324
 20
9.047960776982343
 10
5.246384508027796
 20
9.067645816352421
 10
5.246384508027796
 20
9.028275737612264
 10
5.128274271807324
 20
9.047960776982343
  0
LINE
  5
76
330
6D
100
AcDbEntity
  8
DIMENSIONS
100
AcDbLine
 10
5.246384508027796
 20
9.047960776982343
 30
0.0
 11
7.128274271807324
 21
9.047960776982343
 31
0.0
  0
LWPOLYLINE
  5
77
330
6D
100
AcDbEntity
  8
DIMENSIONS
100
AcDbPolyline
 90
        4
 70
     0
 43
0.0
 10
9.128274271807323
 20
9.047960776982343
 10
9.01016403558685
 20
9.028275737612264
 10
9.01016403558685
 20
9.067645816352421
 10
9.128274271807323
 20
9.047960776982343
  0
LINE
  5
78
330
6D
100
AcDbEntity
  8
DIMENSIONS
100
AcDbLine
 10
9.01016403558685
 20
9.047960776982343
 30
0.0
 11
7.128274271807324
 21
9.047960776982343
 31
0.0
  0
LINE
  5
79
330
6D
100
AcDbEntity
  8
DIMENSIONS
100
AcDbLine
 10
7.3806255520798
 20
9.047960776982343
 30
0.0
 11
6.875922931460875
 21
9.047960776982343
 31
0.0
  0
ENDBLK
  5
6F
330
6D
100
AcDbEntity
  8
0
100
AcDbBlockEnd
  0
BLOCK
  5
7C
330
7B
100
AcDbEntity
  8
0
100
AcDbBlockBegin
  2
D2
 70
     0
 10
0.0
 20
0.0
 30
0.0
  3
D2
  1

  0
MTEXT
  5
7E
330
7B
100
AcDbEntity
  8
DIMENSIONS
100
AcDbMText
 10
6.843626968503937
 20
7.836667158472256
 30
0.0
 40
0.0895833333333333
 41
0.0
 71
     5
 72
     1
  1
{\fAlibre Symbols|b0|i0|c0|p0;n}{\fArial|b0|i0|c0|p0;1.502 "}{\fMS Shell Dlg|b0|i0|c0|p0;\H0.9444444x;}
 73
     1
 44
1.0
  0
MTEXT
  5
7F
330
7B
100
AcDbEntity
  8
DIMENSIONS
100
AcDbMText
 10
6.843626968503937
 20
7.836667158472256
 30
0.0
 40
0.0895833333333333
 41
0.0
 71
     5
 72
     1
  1
{\fArial|b0|i0|c0|p0;}
 73
     1
 44
1.0
  0
MTEXT
  5
80
330
7B
100
AcDbEntity
  8
DIMENSIONS
100
AcDbMText
 10
6.843626968503937
 20
7.836667158472256
 30
0.0
 40
0.0895833333333333
 41
0.0
 71
     5
 72
     1
  1
{\fArial|b0|i0|c0|p0;}
 73
     1
 44
1.0
  0
LINE
  5
81
330
7B
100
AcDbEntity
  8
DIMENSIONS
100
AcDbLine
 10
7.629274271807324
 20
5.87952080674059
 30
0.0
 11
7.629274271807324
 21
7.832073982619237
 31
0.0
  0
LINE
  5
82
330
7B
100
AcDbEntity
  8
DIMENSIONS
100
AcDbLine
 10
6.127274271807323
 20
5.87952080674059
 30
0.0
 11
6.127274271807323
 21
7.832073982619237
 31
0.0
  0
LWPOLYLINE
  5
83
330
7B
100
AcDbEntity
  8
DIMENSIONS
100
AcDbPolyline
 90
        4
 70
     0
 43
0.0
 10
7.629274271807324
 20
7.753333825138922
 10
7.511164035586852
 20
7.733648785768843
 10
7.511164035586852
 20
7.773018864509001
 10
7.629274271807324
 20
7.753333825138922
  0
LINE
  5
84
330
7B
100
AcDbEntity
  8
DIMENSIONS
100
AcDbLine
 10
7.511164035586852
 20
7.753333825138922
 30
0.0
 11
6.843626968503937
 21
7.753333825138922
 31
0.0
  0
LWPOLYLINE
  5
85
330
7B
100
AcDbEntity
  8
DIMENSIONS
100
AcDbPolyline
 90
        4
 70
     0
 43
0.0
 10
6.127274271807323
 20
7.753333825138922
 10
6.245384508027796
 20
7.773018864509001
 10
6.245384508027796
 20
7.733648785768843
 10
6.127274271807323
 20
7.753333825138922
  0
LINE
  5
86
330
7B
100
AcDbEntity
  8
DIMENSIONS
100
AcDbLine
 10
6.245384508027796
 20
7.753333825138922
 30
0.0
 11
6.843626968503937
 21
7.753333825138922
 31
0.0
  0
LINE
  5
87
330
7B
100
AcDbEntity
  8
DIMENSIONS
100
AcDbLine
 10
7.144589281457607
 20
7.753333825138922
 30
0.0
 11
6.542664633022509
 21
7.753333825138922
 31
0.0
  0
ENDBLK
  5
7D
330
7B
100
AcDbEntity
  8
0
100
AcDbBlockEnd
  0
BLOCK
  5
8A
330
89
100
AcDbEntity
  8
0
100
AcDbBlockBegin
  2
D3
 70
     0
 10
0.0
 20
0.0
 30
0.0
  3
D3
  1

  0
MTEXT
  5
8C
330
89
100
AcDbEntity
  8
DIMENSIONS
100
AcDbMText
 10
9.676255203607521
 20
4.300780649260275
 30
0.0
 40
0.0895833333333333
 41
0.0
 71
     5
 72
     1
  1
{\fArial|b0|i0|c0|p0;0.000 "}{\fArial|b0|i0|c0|p0;}
 73
     1
 44
1.0
  0
MTEXT
  5
8D
330
89
100
AcDbEntity
  8
DIMENSIONS
100
AcDbMText
 10
9.676255203607521
 20
4.300780649260275
 30
0.0
 40
0.0895833333333333
 41
0.0
 71
     5
 72
     1
  1
{\fArial|b0|i0|c0|p0;}
 73
     1
 44
1.0
  0
MTEXT
  5
8E
330
89
100
AcDbEntity
  8
DIMENSIONS
100
AcDbMText
 10
9.676255203607521
 20
4.300780649260275
 30
0.0
 40
0.0895833333333333
 41
0.0
 71
     5
 72
     1
  1
{\fArial|b0|i0|c0|p0;}
 73
     1
 44
1.0
  0
LINE
  5
8F
330
89
100
AcDbEntity
  8
DIMENSIONS
100
AcDbLine
 10
9.20701442928764
 20
4.300780649260275
 30
0.0
 11
9.187683315727647
 21
4.300780649260275
 31
0.0
  0
LINE
  5
90
330
89
100
AcDbEntity
  8
DIMENSIONS
100
AcDbLine
 10
9.187683315727647
 20
4.300780649260275
 30
0.0
 11
9.305793551948117
 21
4.300780694315755
 31
0.0
  0
LINE
  5
91
330
89
100
AcDbEntity
  8
DIMENSIONS
100
AcDbLine
 10
9.305793551948117
 20
4.300780694315755
 30
0.0
 11
9.423903788168591
 21
4.300780694315755
 31
0.0
  0
ENDBLK
  5
8B
330
89
100
AcDbEntity
  8
0
100
AcDbBlockEnd
  0
BLOCK
  5
94
330
93
100
AcDbEntity
  8
0
100
AcDbBlockBegin
  2
D4
 70
     0
 10
0.0
 20
0.0
 30
0.0
  3
D4
  1

  0
MTEXT
  5
96
330
93
100
AcDbEntity
  8
DIMENSIONS
100
AcDbMText
 10
9.676255203607521
 20
4.870780649260276
 30
0.0
 40
0.0895833333333333
 41
0.0
 71
     5
 72
     1
  1
{\fArial|b0|i0|c0|p0;0.570 "}{\fArial|b0|i0|c0|p0;}
 73
     1
 44
1.0
  0
MTEXT
  5
97
330
93
100
AcDbEntity
  8
DIMENSIONS
100
AcDbMText
 10
9.676255203607521
 20
4.870780649260276
 30
0.0
 40
0.0895833333333333
 41
0.0
 71
     5
 72
     1
  1
{\fArial|b0|i0|c0|p0;}
 73
     1
 44
1.0
  0
MTEXT
  5
98
330
93
100
AcDbEntity
  8
DIMENSIONS
100
AcDbMText
 10
9.676255203607521
 20
4.870780649260276
 30
0.0
 40
0.0895833333333333
 41
0.0
 71
     5
 72
     1
  1
{\fArial|b0|i0|c0|p0;}
 73
     1
 44
1.0
  0
LINE
  5
99
330
93
100
AcDbEntity
  8
DIMENSIONS
100
AcDbLine
 10
6.027014429287639
 20
4.870780649260276
 30
0.0
 11
9.187683315727647
 21
4.870780649260276
 31
0.0
  0
LINE
  5
9A
330
93
100
AcDbEntity
  8
DIMENSIONS
100
AcDbLine
 10
9.187683315727647
 20
4.870780649260276
 30
0.0
 11
9.305793551948117
 21
4.870780569361892
 31
0.0
  0
LINE
  5
9B
330
93
100
AcDbEntity
  8
DIMENSIONS
100
AcDbLine
 10
9.305793551948117
 20
4.870780569361892
 30
0.0
 11
9.423903788168591
 21
4.870780569361892
 31
0.0
  0
ENDBLK
  5
95
330
93
100
AcDbEntity
  8
0
100
AcDbBlockEnd
  0
BLOCK
  5
9E
330
9D
100
AcDbEntity
  8
0
100
AcDbBlockBegin
  2
D5
 70
     0
 10
0.0
 20
0.0
 30
0.0
  3
D5
  1

  0
MTEXT
  5
A0
330
9D
100
AcDbEntity
  8
DIMENSIONS
100
AcDbMText
 10
9.676255203607521
 20
5.050780649260275
 30
0.0
 40
0.0895833333333333
 41
0.0
 71
     5
 72
     1
  1
{\fArial|b0|i0|c0|p0;0.750 "}{\fArial|b0|i0|c0|p0;}
 73
     1
 44
1.0
  0
MTEXT
  5
A1
330
9D
100
AcDbEntity
  8
DIMENSIONS
100
AcDbMText
 10
9.676255203607521
 20
5.050780649260275
 30
0.0
 40
0.0895833333333333
 41
0.0
 71
     5
 72
     1
  1
{\fArial|b0|i0|c0|p0;}
 73
     1
 44
1.0
  0
MTEXT
  5
A2
330
9D
100
AcDbEntity
  8
DIMENSIONS
100
AcDbMText
 10
9.676255203607521
 20
5.050780649260275
 30
0.0
 40
0.0895833333333333
 41
0.0
 71
     5
 72
     1
  1
{\fArial|b0|i0|c0|p0;}
 73
     1
 44
1.0
  0
LINE
  5
A3
330
9D
100
AcDbEntity
  8
DIMENSIONS
100
AcDbLine
 10
8.45701442928764
 20
5.050780649260275
 30
0.0
 11
9.187683315727647
 21
5.050780649260275
 31
0.0
  0
LINE
  5
A4
330
9D
100
AcDbEntity
  8
DIMENSIONS
100
AcDbLine
 10
9.187683315727647
 20
5.050780649260275
 30
0.0
 11
9.305793551948117
 21
5.050780589186303
 31
0.0
  0
LINE
  5
A5
330
9D
100
AcDbEntity
  8
DIMENSIONS
100
AcDbLine
 10
9.305793551948117
 20
5.050780589186303
 30
0.0
 11
9.423903788168591
 21
5.050780589186303
 31
0.0
  0
ENDBLK
  5
9F
330
9D
100
AcDbEntity
  8
0
100
AcDbBlockEnd
  0
BLOCK
  5
A8
330
A7
100
AcDbEntity
  8
0
100
AcDbBlockBegin
  2
D6
 70
     0
 10
0.0
 20
0.0
 30
0.0
  3
D6
  1

  0
MTEXT
  5
AA
330
A7
100
AcDbEntity
  8
DIMENSIONS
100
AcDbMText
 10
9.676255203607521
 20
5.800780649260275
 30
0.0
 40
0.0895833333333333
 41
0.0
 71
     5
 72
     1
  1
{\fArial|b0|i0|c0|p0;1.500 "}{\fArial|b0|i0|c0|p0;}
 73
     1
 44
1.0
  0
MTEXT
  5
AB
330
A7
100
AcDbEntity
  8
DIMENSIONS
100
AcDbMText
 10
9.676255203607521
 20
5.800780649260275
 30
0.0
 40
0.0895833333333333
 41
0.0
 71
     5
 72
     1
  1
{\fArial|b0|i0|c0|p0;}
 73
     1
 44
1.0
  0
MTEXT
  5
AC
330
A7
100
AcDbEntity
  8
DIMENSIONS
100
AcDbMText
 10
9.676255203607521
 20
5.800780649260275
 30
0.0
 40
0.0895833333333333
 41
0.0
 71
     5
 72
     1
  1
{\fArial|b0|i0|c0|p0;}
 73
     1
 44
1.0
  0
LINE
  5
AD
330
A7
100
AcDbEntity
  8
DIMENSIONS
100
AcDbLine
 10
6.957014429287639
 20
5.800780649260275
 30
0.0
 11
9.187683315727647
 21
5.800780649260275
 31
0.0
  0
LINE
  5
AE
330
A7
100
AcDbEntity
  8
DIMENSIONS
100
AcDbLine
 10
9.187683315727647
 20
5.800780649260275
 30
0.0
 11
9.305793551948117
 21
5.800780671788015
 31
0.0
  0
LINE
  5
AF
330
A7
100
AcDbEntity
  8
DIMENSIONS
100
AcDbLine
 10
9.305793551948117
 20
5.800780671788015
 30
0.0
 11
9.423903788168591
 21
5.800780671788015
 31
0.0
  0
ENDBLK
  5
A9
330
A7
100
AcDbEntity
  8
0
100
AcDbBlockEnd
  0
BLOCK
  5
B2
330
B1
100
AcDbEntity
  8
0
100
AcDbBlockBegin
  2
D7
 70
     0
 10
0.0
 20
0.0
 30
0.0
  3
D7
  1

  0
MTEXT
  5
B4
330
B1
100
AcDbEntity
  8
DIMENSIONS
100
AcDbMText
 10
9.676255203607521
 20
6.730780649260275
 30
0.0
 40
0.0895833333333333
 41
0.0
 71
     5
 72
     1
  1
{\fArial|b0|i0|c0|p0;2.430 "}{\fArial|b0|i0|c0|p0;}
 73
     1
 44
1.0
  0
MTEXT
  5
B5
330
B1
100
AcDbEntity
  8
DIMENSIONS
100
AcDbMText
 10
9.676255203607521
 20
6.730780649260275
 30
0.0
 40
0.0895833333333333
 41
0.0
 71
     5
 72
     1
  1
{\fArial|b0|i0|c0|p0;}
 73
     1
 44
1.0
  0
MTEXT
  5
B6
330
B1
100
AcDbEntity
  8
DIMENSIONS
100
AcDbMText
 10
9.676255203607521
 20
6.730780649260275
 30
0.0
 40
0.0895833333333333
 41
0.0
 71
     5
 72
     1
  1
{\fArial|b0|i0|c0|p0;}
 73
     1
 44
1.0
  0
LINE
  5
B7
330
B1
100
AcDbEntity
  8
DIMENSIONS
100
AcDbLine
 10
6.027014429287639
 20
6.730780649260275
 30
0.0
 11
9.187683315727647
 21
6.730780649260275
 31
0.0
  0
LINE
  5
B8
330
B1
100
AcDbEntity
  8
DIMENSIONS
100
AcDbLine
 10
9.187683315727647
 20
6.730780649260275
 30
0.0
 11
9.305793551948117
 21
6.730780633415765
 31
0.0
  0
LINE
  5
B9
330
B1
100
AcDbEntity
  8
DIMENSIONS
100
AcDbLine
 10
9.305793551948117
 20
6.730780633415765
 30
0.0
 11
9.423903788168591
 21
6.730780633415765
 31
0.0
  0
ENDBLK
  5
B3
330
B1
100
AcDbEntity
  8
0
100
AcDbBlockEnd
  0
BLOCK
  5
BC
330
BB
100
AcDbEntity
  8
0
100
AcDbBlockBegin
  2
D8
 70
     0
 10
0.0
 20
0.0
 30
0.0
  3
D8
  1

  0
MTEXT
  5
BE
330
BB
100
AcDbEntity
  8
DIMENSIONS
100
AcDbMText
 10
9.676255203607521
 20
6.550780649260275
 30
0.0
 40
0.0895833333333333
 41
0.0
 71
     5
 72
     1
  1
{\fArial|b0|i0|c0|p0;2.250 "}{\fArial|b0|i0|c0|p0;}
 73
     1
 44
1.0
  0
MTEXT
  5
BF
330
BB
100
AcDbEntity
  8
DIMENSIONS
100
AcDbMText
 10
9.676255203607521
 20
6.550780649260275
 30
0.0
 40
0.0895833333333333
 41
0.0
 71
     5
 72
     1
  1
{\fArial|b0|i0|c0|p0;}
 73
     1
 44
1.0
  0
MTEXT
  5
C0
330
BB
100
AcDbEntity
  8
DIMENSIONS
100
AcDbMText
 10
9.676255203607521
 20
6.550780649260275
 30
0.0
 40
0.0895833333333333
 41
0.0
 71
     5
 72
     1
  1
{\fArial|b0|i0|c0|p0;}
 73
     1
 44
1.0
  0
LINE
  5
C1
330
BB
100
AcDbEntity
  8
DIMENSIONS
100
AcDbLine
 10
8.45701442928764
 20
6.550780649260275
 30
0.0
 11
9.187683315727647
 21
6.550780649260275
 31
0.0
  0
LINE
  5
C2
330
BB
100
AcDbEntity
  8
DIMENSIONS
100
AcDbLine
 10
9.187683315727647
 20
6.550780649260275
 30
0.0
 11
9.305793551948117
 21
6.550780660524145
 31
0.0
  0
LINE
  5
C3
330
BB
100
AcDbEntity
  8
DIMENSIONS
100
AcDbLine
 10
9.305793551948117
 20
6.550780660524145
 30
0.0
 11
9.423903788168591
 21
6.550780660524145
 31
0.0
  0
ENDBLK
  5
BD
330
BB
100
AcDbEntity
  8
0
100
AcDbBlockEnd
  0
BLOCK
  5
C6
330
C5
100
AcDbEntity
  8
0
100
AcDbBlockBegin
  2
D9
 70
     0
 10
0.0
 20
0.0
 30
0.0
  3
D9
  1

  0
MTEXT
  5
C8
330
C5
100
AcDbEntity
  8
DIMENSIONS
100
AcDbMText
 10
9.676255203607521
 20
4.300780649260275
 30
0.0
 40
0.0895833333333333
 41
0.0
 71
     5
 72
     1
  1
{\fArial|b0|i0|c0|p0;0.000 "}{\fArial|b0|i0|c0|p0;}
 73
     1
 44
1.0
  0
MTEXT
  5
C9
330
C5
100
AcDbEntity
  8
DIMENSIONS
100
AcDbMText
 10
9.676255203607521
 20
4.300780649260275
 30
0.0
 40
0.0895833333333333
 41
0.0
 71
     5
 72
     1
  1
{\fArial|b0|i0|c0|p0;}
 73
     1
 44
1.0
  0
MTEXT
  5
CA
330
C5
100
AcDbEntity
  8
DIMENSIONS
100
AcDbMText
 10
9.676255203607521
 20
4.300780649260275
 30
0.0
 40
0.0895833333333333
 41
0.0
 71
     5
 72
     1
  1
{\fArial|b0|i0|c0|p0;}
 73
     1
 44
1.0
  0
LINE
  5
CB
330
C5
100
AcDbEntity
  8
DIMENSIONS
100
AcDbLine
 10
9.20701442928764
 20
4.300780649260275
 30
0.0
 11
9.187683315727647
 21
4.300780649260275
 31
0.0
  0
LINE
  5
CC
330
C5
100
AcDbEntity
  8
DIMENSIONS
100
AcDbLine
 10
9.187683315727647
 20
4.300780649260275
 30
0.0
 11
9.305793551948117
 21
4.300780694315755
 31
0.0
  0
LINE
  5
CD
330
C5
100
AcDbEntity
  8
DIMENSIONS
100
AcDbLine
 10
9.305793551948117
 20
4.300780694315755
 30
0.0
 11
9.423903788168591
 21
4.300780694315755
 31
0.0
  0
ENDBLK
  5
C7
330
C5
100
AcDbEntity
  8
0
100
AcDbBlockEnd
  0
BLOCK
  5
D0
330
CF
100
AcDbEntity
  8
0
100
AcDbBlockBegin
  2
D10
 70
     0
 10
0.0
 20
0.0
 30
0.0
  3
D10
  1

  0
MTEXT
  5
D2
330
CF
100
AcDbEntity
  8
DIMENSIONS
100
AcDbMText
 10
9.128274271807324
 20
3.752724204476425
 30
0.0
 40
0.0895833333333333
 41
0.0
 71
     5
 72
     1
  1
{\fArial|b0|i0|c0|p0;0.000 "}{\fArial|b0|i0|c0|p0;}
 11
6.123031769111886E-17
 21
1.0
 31
0.0
 73
     1
 44
1.0
  0
MTEXT
  5
D3
330
CF
100
AcDbEntity
  8
DIMENSIONS
100
AcDbMText
 10
9.128274271807324
 20
3.752724204476425
 30
0.0
 40
0.0895833333333333
 41
0.0
 71
     5
 72
     1
  1
{\fArial|b0|i0|c0|p0;}
 11
6.123031769111886E-17
 21
1.0
 31
0.0
 73
     1
 44
1.0
  0
MTEXT
  5
D4
330
CF
100
AcDbEntity
  8
DIMENSIONS
100
AcDbMText
 10
9.128274271807324
 20
3.752724204476425
 30
0.0
 40
0.0895833333333333
 41
0.0
 71
     5
 72
     1
  1
{\fArial|b0|i0|c0|p0;}
 11
6.123031769111886E-17
 21
1.0
 31
0.0
 73
     1
 44
1.0
  0
LINE
  5
D5
330
CF
100
AcDbEntity
  8
DIMENSIONS
100
AcDbLine
 10
9.128274271807324
 20
4.222040491779961
 30
0.0
 11
9.128274271807324
 21
4.241295927152859
 31
0.0
  0
LINE
  5
D6
330
CF
100
AcDbEntity
  8
DIMENSIONS
100
AcDbLine
 10
9.128274271807324
 20
4.241295927152859
 30
0.0
 11
9.128274136640885
 21
4.123185690932387
 31
0.0
  0
LINE
  5
D7
330
CF
100
AcDbEntity
  8
DIMENSIONS
100
AcDbLine
 10
9.128274136640885
 20
4.123185690932387
 30
0.0
 11
9.128274136640885
 21
4.005075454711914
 31
0.0
  0
ENDBLK
  5
D1
330
CF
100
AcDbEntity
  8
0
100
AcDbBlockEnd
  0
BLOCK
  5
DA
330
D9
100
AcDbEntity
  8
0
100
AcDbBlockBegin
  2
D11
 70
     0
 10
0.0
 20
0.0
 30
0.0
  3
D11
  1

  0
MTEXT
  5
DC
330
D9
100
AcDbEntity
  8
DIMENSIONS
100
AcDbMText
 10
8.378274271807324
 20
3.752724204476425
 30
0.0
 40
0.0895833333333333
 41
0.0
 71
     5
 72
     1
  1
{\fArial|b0|i0|c0|p0;0.750 "}{\fArial|b0|i0|c0|p0;}
 11
6.123031769111886E-17
 21
1.0
 31
0.0
 73
     1
 44
1.0
  0
MTEXT
  5
DD
330
D9
100
AcDbEntity
  8
DIMENSIONS
100
AcDbMText
 10
8.378274271807324
 20
3.752724204476425
 30
0.0
 40
0.0895833333333333
 41
0.0
 71
     5
 72
     1
  1
{\fArial|b0|i0|c0|p0;}
 11
6.123031769111886E-17
 21
1.0
 31
0.0
 73
     1
 44
1.0
  0
MTEXT
  5
DE
330
D9
100
AcDbEntity
  8
DIMENSIONS
100
AcDbMText
 10
8.378274271807324
 20
3.752724204476425
 30
0.0
 40
0.0895833333333333
 41
0.0
 71
     5
 72
     1
  1
{\fArial|b0|i0|c0|p0;}
 11
6.123031769111886E-17
 21
1.0
 31
0.0
 73
     1
 44
1.0
  0
LINE
  5
DF
330
D9
100
AcDbEntity
  8
DIMENSIONS
100
AcDbLine
 10
8.378274271807324
 20
6.472040491779961
 30
0.0
 11
8.378274271807324
 21
4.241296032282312
 31
0.0
  0
LINE
  5
E0
330
D9
100
AcDbEntity
  8
DIMENSIONS
100
AcDbLine
 10
8.378274271807324
 20
4.241296032282312
 30
0.0
 11
8.378274136640883
 21
4.12318579606184
 31
0.0
  0
LINE
  5
E1
330
D9
100
AcDbEntity
  8
DIMENSIONS
100
AcDbLine
 10
8.378274136640883
 20
4.12318579606184
 30
0.0
 11
8.378274136640883
 21
4.005075559841368
 31
0.0
  0
ENDBLK
  5
DB
330
D9
100
AcDbEntity
  8
0
100
AcDbBlockEnd
  0
BLOCK
  5
E4
330
E3
100
AcDbEntity
  8
0
100
AcDbBlockBegin
  2
D12
 70
     0
 10
0.0
 20
0.0
 30
0.0
  3
D12
  1

  0
MTEXT
  5
E6
330
E3
100
AcDbEntity
  8
DIMENSIONS
100
AcDbMText
 10
7.808274271807322
 20
3.752724204476425
 30
0.0
 40
0.0895833333333333
 41
0.0
 71
     5
 72
     1
  1
{\fArial|b0|i0|c0|p0;1.320 "}{\fArial|b0|i0|c0|p0;}
 11
6.123031769111886E-17
 21
1.0
 31
0.0
 73
     1
 44
1.0
  0
MTEXT
  5
E7
330
E3
100
AcDbEntity
  8
DIMENSIONS
100
AcDbMText
 10
7.808274271807322
 20
3.752724204476425
 30
0.0
 40
0.0895833333333333
 41
0.0
 71
     5
 72
     1
  1
{\fArial|b0|i0|c0|p0;}
 11
6.123031769111886E-17
 21
1.0
 31
0.0
 73
     1
 44
1.0
  0
MTEXT
  5
E8
330
E3
100
AcDbEntity
  8
DIMENSIONS
100
AcDbMText
 10
7.808274271807322
 20
3.752724204476425
 30
0.0
 40
0.0895833333333333
 41
0.0
 71
     5
 72
     1
  1
{\fArial|b0|i0|c0|p0;}
 11
6.123031769111886E-17
 21
1.0
 31
0.0
 73
     1
 44
1.0
  0
LINE
  5
E9
330
E3
100
AcDbEntity
  8
DIMENSIONS
100
AcDbLine
 10
7.808274271807324
 20
6.65204049177996
 30
0.0
 11
7.808274271807324
 21
4.241295781773847
 31
0.0
  0
LINE
  5
EA
330
E3
100
AcDbEntity
  8
DIMENSIONS
100
AcDbLine
 10
7.808274271807324
 20
4.241295781773847
 30
0.0
 11
7.808274136640883
 21
4.123185545553374
 31
0.0
  0
LINE
  5
EB
330
E3
100
AcDbEntity
  8
DIMENSIONS
100
AcDbLine
 10
7.808274136640883
 20
4.123185545553374
 30
0.0
 11
7.808274136640883
 21
4.005075309332902
 31
0.0
  0
ENDBLK
  5
E5
330
E3
100
AcDbEntity
  8
0
100
AcDbBlockEnd
  0
BLOCK
  5
EE
330
ED
100
AcDbEntity
  8
0
100
AcDbBlockBegin
  2
D13
 70
     0
 10
0.0
 20
0.0
 30
0.0
  3
D13
  1

  0
MTEXT
  5
F0
330
ED
100
AcDbEntity
  8
DIMENSIONS
100
AcDbMText
 10
6.878274271807324
 20
3.752724204476425
 30
0.0
 40
0.0895833333333333
 41
0.0
 71
     5
 72
     1
  1
{\fArial|b0|i0|c0|p0;2.250 "}{\fArial|b0|i0|c0|p0;}
 11
6.123031769111886E-17
 21
1.0
 31
0.0
 73
     1
 44
1.0
  0
MTEXT
  5
F1
330
ED
100
AcDbEntity
  8
DIMENSIONS
100
AcDbMText
 10
6.878274271807324
 20
3.752724204476425
 30
0.0
 40
0.0895833333333333
 41
0.0
 71
     5
 72
     1
  1
{\fArial|b0|i0|c0|p0;}
 11
6.123031769111886E-17
 21
1.0
 31
0.0
 73
     1
 44
1.0
  0
MTEXT
  5
F2
330
ED
100
AcDbEntity
  8
DIMENSIONS
100
AcDbMText
 10
6.878274271807324
 20
3.752724204476425
 30
0.0
 40
0.0895833333333333
 41
0.0
 71
     5
 72
     1
  1
{\fArial|b0|i0|c0|p0;}
 11
6.123031769111886E-17
 21
1.0
 31
0.0
 73
     1
 44
1.0
  0
LINE
  5
F3
330
ED
100
AcDbEntity
  8
DIMENSIONS
100
AcDbLine
 10
6.878274271807324
 20
5.722040491779961
 30
0.0
 11
6.878274271807324
 21
4.241295867078886
 31
0.0
  0
LINE
  5
F4
330
ED
100
AcDbEntity
  8
DIMENSIONS
100
AcDbLine
 10
6.878274271807324
 20
4.241295867078886
 30
0.0
 11
6.878274136640884
 21
4.123185630858415
 31
0.0
  0
LINE
  5
F5
330
ED
100
AcDbEntity
  8
DIMENSIONS
100
AcDbLine
 10
6.878274136640884
 20
4.123185630858415
 30
0.0
 11
6.878274136640884
 21
4.005075394637942
 31
0.0
  0
ENDBLK
  5
EF
330
ED
100
AcDbEntity
  8
0
100
AcDbBlockEnd
  0
BLOCK
  5
F8
330
F7
100
AcDbEntity
  8
0
100
AcDbBlockBegin
  2
D14
 70
     0
 10
0.0
 20
0.0
 30
0.0
  3
D14
  1

  0
MTEXT
  5
FA
330
F7
100
AcDbEntity
  8
DIMENSIONS
100
AcDbMText
 10
5.948274271807323
 20
3.752724204476425
 30
0.0
 40
0.0895833333333333
 41
0.0
 71
     5
 72
     1
  1
{\fArial|b0|i0|c0|p0;3.180 "}{\fArial|b0|i0|c0|p0;}
 11
6.123031769111886E-17
 21
1.0
 31
0.0
 73
     1
 44
1.0
  0
MTEXT
  5
FB
330
F7
100
AcDbEntity
  8
DIMENSIONS
100
AcDbMText
 10
5.948274271807323
 20
3.752724204476425
 30
0.0
 40
0.0895833333333333
 41
0.0
 71
     5
 72
     1
  1
{\fArial|b0|i0|c0|p0;}
 11
6.123031769111886E-17
 21
1.0
 31
0.0
 73
     1
 44
1.0
  0
MTEXT
  5
FC
330
F7
100
AcDbEntity
  8
DIMENSIONS
100
AcDbMText
 10
5.948274271807323
 20
3.752724204476425
 30
0.0
 40
0.0895833333333333
 41
0.0
 71
     5
 72
     1
  1
{\fArial|b0|i0|c0|p0;}
 11
6.123031769111886E-17
 21
1.0
 31
0.0
 73
     1
 44
1.0
  0
LINE
  5
FD
330
F7
100
AcDbEntity
  8
DIMENSIONS
100
AcDbLine
 10
5.948274271807324
 20
6.65204049177996
 30
0.0
 11
5.948274271807324
 21
4.241295952383928
 31
0.0
  0
LINE
  5
FE
330
F7
100
AcDbEntity
  8
DIMENSIONS
100
AcDbLine
 10
5.948274271807324
 20
4.241295952383928
 30
0.0
 11
5.948274136640883
 21
4.123185716163457
 31
0.0
  0
LINE
  5
FF
330
F7
100
AcDbEntity
  8
DIMENSIONS
100
AcDbLine
 10
5.948274136640883
 20
4.123185716163457
 30
0.0
 11
5.948274136640883
 21
4.005075479942984
 31
0.0
  0
ENDBLK
  5
F9
330
F7
100
AcDbEntity
  8
0
100
AcDbBlockEnd
  0
BLOCK
  5
102
330
101
100
AcDbEntity
  8
0
100
AcDbBlockBegin
  2
D15
 70
     0
 10
0.0
 20
0.0
 30
0.0
  3
D15
  1

  0
MTEXT
  5
104
330
101
100
AcDbEntity
  8
DIMENSIONS
100
AcDbMText
 10
6.735583928626355
 20
8.44402763787217
 30
0.0
 40
0.0895833333333333
 41
0.0
 71
     5
 72
     1
  1
{\fArial|b0|i0|c0|p0;5/16"}{\fArial|b0|i0|c0|p0; SHCS}{\fMS Shell Dlg|b0|i0|c0|p0;\H0.9444444x;}
 73
     1
 44
1.0
  0
MTEXT
  5
105
330
101
100
AcDbEntity
  8
DIMENSIONS
100
AcDbMText
 10
6.436972817515245
 20
8.569027637872171
 30
0.0
 40
0.0895833333333333
 41
0.0
 71
     4
 72
     1
  1
{\fArial|b0|i0|c0|p0;2X COUNTER BORE FOR}{\fArial|b0|i0|c0|p0;}
 73
     1
 44
1.0
  0
MTEXT
  5
106
330
101
100
AcDbEntity
  8
DIMENSIONS
100
AcDbMText
 10
6.735583928626355
 20
8.44402763787217
 30
0.0
 40
0.0895833333333333
 41
0.0
 71
     5
 72
     1
  1
{\fArial|b0|i0|c0|p0;}
 73
     1
 44
1.0
  0
LINE
  5
107
330
101
100
AcDbEntity
  8
DIMENSIONS
100
AcDbLine
 10
8.112274271807324
 20
6.629520806740591
 30
0.0
 11
8.112274271807324
 21
8.460267795352484
 31
0.0
  0
LINE
  5
108
330
101
100
AcDbEntity
  8
DIMENSIONS
100
AcDbLine
 10
8.644274271807324
 20
6.629520806740589
 30
0.0
 11
8.644274271807324
 21
8.460267795352484
 31
0.0
  0
LWPOLYLINE
  5
109
330
101
100
AcDbEntity
  8
DIMENSIONS
100
AcDbPolyline
 90
        4
 70
     0
 43
0.0
 10
8.112274271807324
 20
8.38152763787217
 10
8.230384508027797
 20
8.401212677242247
 10
8.230384508027797
 20
8.36184259850209
 10
8.112274271807324
 20
8.38152763787217
  0
LINE
  5
10A
330
101
100
AcDbEntity
  8
DIMENSIONS
100
AcDbLine
 10
8.112274271807324
 20
8.38152763787217
 30
0.0
 11
6.735583928626355
 21
8.381527637872168
 31
0.0
  0
LWPOLYLINE
  5
10B
330
101
100
AcDbEntity
  8
DIMENSIONS
100
AcDbPolyline
 90
        4
 70
     0
 43
0.0
 10
8.644274271807324
 20
8.38152763787217
 10
8.526164035586852
 20
8.36184259850209
 10
8.526164035586852
 20
8.401212677242247
 10
8.644274271807324
 20
8.38152763787217
  0
LINE
  5
10C
330
101
100
AcDbEntity
  8
DIMENSIONS
100
AcDbLine
 10
8.526164035586852
 20
8.38152763787217
 30
0.0
 11
8.230384508027797
 21
8.38152763787217
 31
0.0
  0
LINE
  5
10D
330
101
100
AcDbEntity
  8
DIMENSIONS
100
AcDbLine
 10
6.358232655863114
 20
8.381527637872171
 30
0.0
 11
7.862935073732382
 21
8.381527637872166
 31
0.0
  0
ENDBLK
  5
103
330
101
100
AcDbEntity
  8
0
100
AcDbBlockEnd
  0
BLOCK
  5
110
330
10F
100
AcDbEntity
  8
0
100
AcDbBlockBegin
  2
D16
 70
     0
 10
0.0
 20
0.0
 30
0.0
  3
D16
  1

  0
MTEXT
  5
112
330
10F
100
AcDbEntity
  8
DIMENSIONS
100
AcDbMText
 10
4.482339273287556
 20
7.292682918037957
 30
0.0
 40
0.0895833333333333
 41
0.0
 71
     5
 72
     1
  1
{\fArial|b0|i0|c0|p0;4X }{\fAlibre Symbols|b0|i0|c0|p0;n}{\fArial|b0|i0|c0|p0;0.160 "}{\fMS Shell Dlg|b0|i0|c0|p0;\H0.9444444x;}
 11
6.123031769111886E-17
 21
1.0
 31
0.0
 73
     1
 44
1.0
  0
MTEXT
  5
113
330
10F
100
AcDbEntity
  8
DIMENSIONS
100
AcDbMText
 10
4.482339273287556
 20
7.292682918037957
 30
0.0
 40
0.0895833333333333
 41
0.0
 71
     5
 72
     1
  1
{\fArial|b0|i0|c0|p0;}
 11
6.123031769111886E-17
 21
1.0
 31
0.0
 73
     1
 44
1.0
  0
MTEXT
  5
114
330
10F
100
AcDbEntity
  8
DIMENSIONS
100
AcDbMText
 10
4.482339273287556
 20
7.292682918037957
 30
0.0
 40
0.0895833333333333
 41
0.0
 71
     5
 72
     1
  1
{\fArial|b0|i0|c0|p0;}
 11
6.123031769111886E-17
 21
1.0
 31
0.0
 73
     1
 44
1.0
  0
LINE
  5
115
330
10F
100
AcDbEntity
  8
DIMENSIONS
100
AcDbLine
 10
5.869534114327009
 20
6.650780649260275
 30
0.0
 11
4.486932449140574
 21
6.650780649260275
 31
0.0
  0
LINE
  5
116
330
10F
100
AcDbEntity
  8
DIMENSIONS
100
AcDbLine
 10
5.869534114327009
 20
6.810780649260275
 30
0.0
 11
4.486932449140574
 21
6.810780649260275
 31
0.0
  0
LWPOLYLINE
  5
117
330
10F
100
AcDbEntity
  8
DIMENSIONS
100
AcDbPolyline
 90
        4
 70
     0
 43
0.0
 10
4.56567260662089
 20
6.650780649260275
 10
4.585357645990968
 20
6.532670413039803
 10
4.54598756725081
 20
6.532670413039803
 10
4.56567260662089
 20
6.650780649260275
  0
LINE
  5
118
330
10F
100
AcDbEntity
  8
DIMENSIONS
100
AcDbLine
 10
4.56567260662089
 20
6.532670413039803
 30
0.0
 11
4.56567260662089
 21
6.509048365795708
 31
0.0
  0
LWPOLYLINE
  5
119
330
10F
100
AcDbEntity
  8
DIMENSIONS
100
AcDbPolyline
 90
        4
 70
     0
 43
0.0
 10
4.56567260662089
 20
6.810780649260275
 10
4.54598756725081
 20
6.928890885480748
 10
4.585357645990968
 20
6.928890885480748
 10
4.56567260662089
 20
6.810780649260275
  0
LINE
  5
11A
330
10F
100
AcDbEntity
  8
DIMENSIONS
100
AcDbLine
 10
4.56567260662089
 20
6.928890885480747
 30
0.0
 11
4.56567260662089
 21
7.292682918037957
 31
0.0
  0
LINE
  5
11B
330
10F
100
AcDbEntity
  8
DIMENSIONS
100
AcDbLine
 10
4.565672606620889
 20
6.908387199396226
 30
0.0
 11
4.56567260662089
 21
7.676978637149017
 31
0.0
  0
ENDBLK
  5
111
330
10F
100
AcDbEntity
  8
0
100
AcDbBlockEnd
  0
BLOCK
  5
122
330
121
100
AcDbEntity
  8
0
100
AcDbBlockBegin
  2
D17
 70
     0
 10
0.0
 20
0.0
 30
0.0
  3
D17
  1

  0
MTEXT
  5
124
330
121
100
AcDbEntity
  8
DIMENSIONS
100
AcDbMText
 10
2.275977607787126
 20
5.800780649260275
 30
0.0
 40
0.0895833333333333
 41
0.0
 71
     5
 72
     1
  1
{\fArial|b0|i0|c0|p0;3.000 "}{\fMS Shell Dlg|b0|i0|c0|p0;\H0.9444444x;}
 11
6.123031769111886E-17
 21
1.0
 31
0.0
 73
     1
 44
1.0
  0
MTEXT
  5
125
330
121
100
AcDbEntity
  8
DIMENSIONS
100
AcDbMText
 10
2.275977607787126
 20
5.800780649260275
 30
0.0
 40
0.0895833333333333
 41
0.0
 71
     5
 72
     1
  1
{\fArial|b0|i0|c0|p0;}
 11
6.123031769111886E-17
 21
1.0
 31
0.0
 73
     1
 44
1.0
  0
MTEXT
  5
126
330
121
100
AcDbEntity
  8
DIMENSIONS
100
AcDbMText
 10
2.275977607787126
 20
5.800780649260275
 30
0.0
 40
0.0895833333333333
 41
0.0
 71
     5
 72
     1
  1
{\fArial|b0|i0|c0|p0;}
 11
6.123031769111886E-17
 21
1.0
 31
0.0
 73
     1
 44
1.0
  0
LINE
  5
127
330
121
100
AcDbEntity
  8
DIMENSIONS
100
AcDbLine
 10
2.840895555150792
 20
7.300780649260275
 30
0.0
 11
2.259737450306811
 21
7.300780649260275
 31
0.0
  0
LINE
  5
128
330
121
100
AcDbEntity
  8
DIMENSIONS
100
AcDbLine
 10
2.840895555150792
 20
4.300780649260275
 30
0.0
 11
2.259737450306811
 21
4.300780649260275
 31
0.0
  0
LWPOLYLINE
  5
129
330
121
100
AcDbEntity
  8
DIMENSIONS
100
AcDbPolyline
 90
        4
 70
     0
 43
0.0
 10
2.338477607787126
 20
7.300780649260275
 10
2.358162647157205
 20
7.182670413039803
 10
2.318792568417047
 20
7.182670413039803
 10
2.338477607787126
 20
7.300780649260275
  0
LINE
  5
12A
330
121
100
AcDbEntity
  8
DIMENSIONS
100
AcDbLine
 10
2.338477607787126
 20
7.182670413039803
 30
0.0
 11
2.338477607787126
 21
5.800780649260275
 31
0.0
  0
LWPOLYLINE
  5
12B
330
121
100
AcDbEntity
  8
DIMENSIONS
100
AcDbPolyline
 90
        4
 70
     0
 43
0.0
 10
2.338477607787127
 20
4.300780649260275
 10
2.318792568417048
 20
4.418890885480748
 10
2.358162647157205
 20
4.418890885480748
 10
2.338477607787127
 20
4.300780649260275
  0
LINE
  5
12C
330
121
100
AcDbEntity
  8
DIMENSIONS
100
AcDbLine
 10
2.338477607787126
 20
4.418890885480748
 30
0.0
 11
2.338477607787126
 21
5.800780649260275
 31
0.0
  0
LINE
  5
12D
330
121
100
AcDbEntity
  8
DIMENSIONS
100
AcDbLine
 10
2.338477607787126
 20
5.548429408411343
 30
0.0
 11
2.338477607787126
 21
6.053131935164687
 31
0.0
  0
ENDBLK
  5
123
330
121
100
AcDbEntity
  8
0
100
AcDbBlockEnd
  0
BLOCK
  5
130
330
12F
100
AcDbEntity
  8
0
100
AcDbBlockBegin
  2
D18
 70
     0
 10
0.0
 20
0.0
 30
0.0
  3
D18
  1

  0
MTEXT
  5
132
330
12F
100
AcDbEntity
  8
DIMENSIONS
100
AcDbMText
 10
3.169635712631107
 20
8.013152835875983
 30
0.0
 40
0.0895833333333333
 41
0.0
 71
     5
 72
     1
  1
{\fArial|b0|i0|c0|p0;0.500 "}{\fMS Shell Dlg|b0|i0|c0|p0;\H0.9444444x;}
 73
     1
 44
1.0
  0
MTEXT
  5
133
330
12F
100
AcDbEntity
  8
DIMENSIONS
100
AcDbMText
 10
3.169635712631107
 20
8.013152835875983
 30
0.0
 40
0.0895833333333333
 41
0.0
 71
     5
 72
     1
  1
{\fArial|b0|i0|c0|p0;}
 73
     1
 44
1.0
  0
MTEXT
  5
134
330
12F
100
AcDbEntity
  8
DIMENSIONS
100
AcDbMText
 10
3.169635712631107
 20
8.013152835875983
 30
0.0
 40
0.0895833333333333
 41
0.0
 71
     5
 72
     1
  1
{\fArial|b0|i0|c0|p0;}
 73
     1
 44
1.0
  0
LINE
  5
135
330
12F
100
AcDbEntity
  8
DIMENSIONS
100
AcDbLine
 10
3.419635712631107
 20
7.37952080674059
 30
0.0
 11
3.419635712631107
 21
8.029392993356298
 31
0.0
  0
LINE
  5
136
330
12F
100
AcDbEntity
  8
DIMENSIONS
100
AcDbLine
 10
2.919635712631107
 20
7.37952080674059
 30
0.0
 11
2.919635712631107
 21
8.029392993356298
 31
0.0
  0
LWPOLYLINE
  5
137
330
12F
100
AcDbEntity
  8
DIMENSIONS
100
AcDbPolyline
 90
        4
 70
     0
 43
0.0
 10
3.419635712631107
 20
7.950652835875984
 10
3.301525476410634
 20
7.930967796505906
 10
3.301525476410634
 20
7.970337875246063
 10
3.419635712631107
 20
7.950652835875984
  0
LINE
  5
138
330
12F
100
AcDbEntity
  8
DIMENSIONS
100
AcDbLine
 10
3.301525476410634
 20
7.950652835875984
 30
0.0
 11
3.169635712631107
 21
7.950652835875984
 31
0.0
  0
LWPOLYLINE
  5
139
330
12F
100
AcDbEntity
  8
DIMENSIONS
100
AcDbPolyline
 90
        4
 70
     0
 43
0.0
 10
2.919635712631107
 20
7.950652835875984
 10
3.037745948851579
 20
7.970337875246063
 10
3.037745948851579
 20
7.930967796505906
 10
2.919635712631107
 20
7.950652835875984
  0
LINE
  5
13A
330
12F
100
AcDbEntity
  8
DIMENSIONS
100
AcDbLine
 10
3.037745948851579
 20
7.950652835875984
 30
0.0
 11
3.169635712631107
 21
7.950652835875984
 31
0.0
  0
LINE
  5
13B
330
12F
100
AcDbEntity
  8
DIMENSIONS
100
AcDbLine
 10
2.917284453009058
 20
7.950652835875984
 30
0.0
 11
3.421986979762401
 21
7.950652835875984
 31
0.0
  0
ENDBLK
  5
131
330
12F
100
AcDbEntity
  8
0
100
AcDbBlockEnd
  0
BLOCK
  5
160
330
15F
100
AcDbEntity
  8
0
100
AcDbBlockBegin
  2
BLOCK3
 70
     0
 10
0.0
 20
0.0
 30
0.0
  3
BLOCK3
  1

  0
LINE
  5
162
330
15F
100
AcDbEntity
  8
CONTINUOUS
100
AcDbLine
 10
0.3937007874015748
 20
0.3937007874015748
 30
0.0
 11
16.14173228346457
 21
0.3937007874015748
 31
0.0
  0
LINE
  5
163
330
15F
100
AcDbEntity
  8
CONTINUOUS
100
AcDbLine
 10
16.14173228346457
 20
11.2992125984252
 30
0.0
 11
0.3937007874015748
 21
11.2992125984252
 31
0.0
  0
LINE
  5
164
330
15F
100
AcDbEntity
  8
CONTINUOUS
100
AcDbLine
 10
6.299212598425196
 20
0.1968503937007874
 30
0.0
 11
10.23622047244094
 21
0.1968503937007874
 31
0.0
  0
LINE
  5
165
330
15F
100
AcDbEntity
  8
CONTINUOUS
100
AcDbLine
 10
0.3937007874015748
 20
11.2992125984252
 30
0.0
 11
0.3937007874015748
 21
0.3937007874015748
 31
0.0
  0
LINE
  5
166
330
15F
100
AcDbEntity
  8
CONTINUOUS
100
AcDbLine
 10
0.0
 20
0.0
 30
0.0
 11
0.0
 21
0.3937007874015748
 31
0.0
  0
LINE
  5
167
330
15F
100
AcDbEntity
  8
CONTINUOUS
100
AcDbLine
 10
0.0
 20
0.0
 30
0.0
 11
0.3937007874015748
 21
0.0
 31
0.0
  0
LINE
  5
168
330
15F
100
AcDbEntity
  8
CONTINUOUS
100
AcDbLine
 10
2.362204724409449
 20
0.1968503937007874
 30
0.0
 11
2.362204724409449
 21
0.3937007874015748
 31
0.0
  0
LINE
  5
169
330
15F
100
AcDbEntity
  8
CONTINUOUS
100
AcDbLine
 10
0.3937007874015748
 20
2.224409448818898
 30
0.0
 11
0.1968503937007874
 21
2.224409448818898
 31
0.0
  0
LINE
  5
16A
330
15F
100
AcDbEntity
  8
CONTINUOUS
100
AcDbLine
 10
0.3937007874015748
 20
4.035433070866142
 30
0.0
 11
0.1968503937007874
 21
4.035433070866142
 31
0.0
  0
LINE
  5
16B
330
15F
100
AcDbEntity
  8
CONTINUOUS
100
AcDbLine
 10
4.330708661417323
 20
0.1968503937007874
 30
0.0
 11
4.330708661417323
 21
0.3937007874015748
 31
0.0
  0
LINE
  5
16C
330
15F
100
AcDbEntity
  8
CONTINUOUS
100
AcDbLine
 10
8.26771653543307
 20
0.3937007874015748
 30
0.0
 11
8.26771653543307
 21
0.1968503937007874
 31
0.0
  0
LINE
  5
16D
330
15F
100
AcDbEntity
  8
CONTINUOUS
100
AcDbLine
 10
6.299212598425196
 20
0.1968503937007874
 30
0.0
 11
6.299212598425196
 21
0.3937007874015748
 31
0.0
  0
LINE
  5
16E
330
15F
100
AcDbEntity
  8
CONTINUOUS
100
AcDbLine
 10
6.692913385826771
 20
0.1968503937007874
 30
0.0
 11
6.692913385826771
 21
0.3937007874015748
 31
0.0
  0
LINE
  5
16F
330
15F
100
AcDbEntity
  8
CONTINUOUS
100
AcDbLine
 10
7.086614173228346
 20
0.1968503937007874
 30
0.0
 11
7.086614173228346
 21
0.3937007874015748
 31
0.0
  0
LINE
  5
170
330
15F
100
AcDbEntity
  8
CONTINUOUS
100
AcDbLine
 10
7.480314960629921
 20
0.1968503937007874
 30
0.0
 11
7.480314960629921
 21
0.3937007874015748
 31
0.0
  0
LINE
  5
171
330
15F
100
AcDbEntity
  8
CONTINUOUS
100
AcDbLine
 10
7.874015748031496
 20
0.1968503937007874
 30
0.0
 11
7.874015748031496
 21
0.3937007874015748
 31
0.0
  0
LINE
  5
172
330
15F
100
AcDbEntity
  8
CONTINUOUS
100
AcDbLine
 10
0.3937007874015748
 20
7.65748031496063
 30
0.0
 11
0.1968503937007874
 21
7.65748031496063
 31
0.0
  0
LINE
  5
173
330
15F
100
AcDbEntity
  8
CONTINUOUS
100
AcDbLine
 10
0.3937007874015748
 20
9.468503937007874
 30
0.0
 11
0.1968503937007874
 21
9.468503937007874
 31
0.0
  0
LINE
  5
174
330
15F
100
AcDbEntity
  8
CONTINUOUS
100
AcDbLine
 10
0.0
 20
11.69291338582677
 30
0.0
 11
0.0
 21
11.2992125984252
 31
0.0
  0
LINE
  5
175
330
15F
100
AcDbEntity
  8
CONTINUOUS
100
AcDbLine
 10
0.3937007874015748
 20
11.69291338582677
 30
0.0
 11
0.0
 21
11.69291338582677
 31
0.0
  0
LINE
  5
176
330
15F
100
AcDbEntity
  8
CONTINUOUS
100
AcDbLine
 10
2.362204724409449
 20
11.2992125984252
 30
0.0
 11
2.362204724409449
 21
11.49606299212598
 31
0.0
  0
LINE
  5
177
330
15F
100
AcDbEntity
  8
CONTINUOUS
100
AcDbLine
 10
4.330708661417323
 20
11.2992125984252
 30
0.0
 11
4.330708661417323
 21
11.49606299212598
 31
0.0
  0
LINE
  5
178
330
15F
100
AcDbEntity
  8
CONTINUOUS
100
AcDbLine
 10
6.299212598425196
 20
11.2992125984252
 30
0.0
 11
6.299212598425196
 21
11.49606299212598
 31
0.0
  0
LINE
  5
179
330
15F
100
AcDbEntity
  8
CONTINUOUS
100
AcDbLine
 10
16.14173228346457
 20
0.3937007874015748
 30
0.0
 11
16.14173228346457
 21
11.2992125984252
 31
0.0
  0
LINE
  5
17A
330
15F
100
AcDbEntity
  8
CONTINUOUS
100
AcDbLine
 10
12.40157480314961
 20
0.7874015748031495
 30
0.0
 11
16.14173228346457
 21
0.7874015748031495
 31
0.0
  0
LINE
  5
17B
330
15F
100
AcDbEntity
  8
CONTINUOUS
100
AcDbLine
 10
9.448818897637794
 20
1.181102362204724
 30
0.0
 11
16.14173228346457
 21
1.181102362204724
 31
0.0
  0
LINE
  5
17C
330
15F
100
AcDbEntity
  8
CONTINUOUS
100
AcDbLine
 10
9.448818897637794
 20
1.574803149606299
 30
0.0
 11
16.14173228346457
 21
1.574803149606299
 31
0.0
  0
LINE
  5
17D
330
15F
100
AcDbEntity
  8
CONTINUOUS
100
AcDbLine
 10
9.448818897637794
 20
1.811023622047244
 30
0.0
 11
16.14173228346457
 21
1.811023622047244
 31
0.0
  0
LINE
  5
17E
330
15F
100
AcDbEntity
  8
CONTINUOUS
100
AcDbLine
 10
10.23622047244094
 20
0.1968503937007874
 30
0.0
 11
10.23622047244094
 21
0.3937007874015748
 31
0.0
  0
LINE
  5
17F
330
15F
100
AcDbEntity
  8
CONTINUOUS
100
AcDbLine
 10
8.661417322834646
 20
0.1968503937007874
 30
0.0
 11
8.661417322834646
 21
0.3937007874015748
 31
0.0
  0
LINE
  5
180
330
15F
100
AcDbEntity
  8
CONTINUOUS
100
AcDbLine
 10
9.05511811023622
 20
0.1968503937007874
 30
0.0
 11
9.05511811023622
 21
0.3937007874015748
 31
0.0
  0
LINE
  5
181
330
15F
100
AcDbEntity
  8
CONTINUOUS
100
AcDbLine
 10
9.448818897637794
 20
0.1968503937007874
 30
0.0
 11
9.448818897637794
 21
0.3937007874015748
 31
0.0
  0
LINE
  5
182
330
15F
100
AcDbEntity
  8
CONTINUOUS
100
AcDbLine
 10
9.84251968503937
 20
0.1968503937007874
 30
0.0
 11
9.84251968503937
 21
0.3937007874015748
 31
0.0
  0
LINE
  5
183
330
15F
100
AcDbEntity
  8
CONTINUOUS
100
AcDbLine
 10
9.448818897637794
 20
0.3937007874015748
 30
0.0
 11
9.448818897637794
 21
1.574803149606299
 31
0.0
  0
LINE
  5
184
330
15F
100
AcDbEntity
  8
CONTINUOUS
100
AcDbLine
 10
9.448818897637794
 20
1.574803149606299
 30
0.0
 11
9.448818897637794
 21
1.811023622047244
 31
0.0
  0
LINE
  5
185
330
15F
100
AcDbEntity
  8
CONTINUOUS
100
AcDbLine
 10
10.70866141732284
 20
1.181102362204724
 30
0.0
 11
10.70866141732284
 21
1.574803149606299
 31
0.0
  0
LINE
  5
186
330
15F
100
AcDbEntity
  8
CONTINUOUS
100
AcDbLine
 10
10.03937007874016
 20
1.574803149606299
 30
0.0
 11
10.03937007874016
 21
1.811023622047244
 31
0.0
  0
LINE
  5
187
330
15F
100
AcDbEntity
  8
CONTINUOUS
100
AcDbLine
 10
10.70866141732284
 20
1.574803149606299
 30
0.0
 11
10.70866141732284
 21
1.811023622047244
 31
0.0
  0
LINE
  5
188
330
15F
100
AcDbEntity
  8
CONTINUOUS
100
AcDbLine
 10
12.20472440944882
 20
0.1968503937007874
 30
0.0
 11
12.20472440944882
 21
0.3937007874015748
 31
0.0
  0
LINE
  5
189
330
15F
100
AcDbEntity
  8
CONTINUOUS
100
AcDbLine
 10
11.69291338582677
 20
1.181102362204724
 30
0.0
 11
11.69291338582677
 21
1.574803149606299
 31
0.0
  0
LINE
  5
18A
330
15F
100
AcDbEntity
  8
CONTINUOUS
100
AcDbLine
 10
13.18897637795276
 20
1.181102362204724
 30
0.0
 11
13.18897637795276
 21
1.574803149606299
 31
0.0
  0
LINE
  5
18B
330
15F
100
AcDbEntity
  8
CONTINUOUS
100
AcDbLine
 10
12.40157480314961
 20
0.3937007874015748
 30
0.0
 11
12.40157480314961
 21
1.181102362204724
 31
0.0
  0
LINE
  5
18C
330
15F
100
AcDbEntity
  8
CONTINUOUS
100
AcDbLine
 10
14.17322834645669
 20
0.1968503937007874
 30
0.0
 11
14.17322834645669
 21
0.3937007874015748
 31
0.0
  0
LINE
  5
18D
330
15F
100
AcDbEntity
  8
CONTINUOUS
100
AcDbLine
 10
14.17322834645669
 20
1.181102362204724
 30
0.0
 11
14.17322834645669
 21
1.574803149606299
 31
0.0
  0
LINE
  5
18E
330
15F
100
AcDbEntity
  8
CONTINUOUS
100
AcDbLine
 10
14.17322834645669
 20
1.574803149606299
 30
0.0
 11
14.17322834645669
 21
1.811023622047244
 31
0.0
  0
LINE
  5
18F
330
15F
100
AcDbEntity
  8
CONTINUOUS
100
AcDbLine
 10
15.35433070866142
 20
1.181102362204724
 30
0.0
 11
15.35433070866142
 21
1.574803149606299
 31
0.0
  0
LINE
  5
190
330
15F
100
AcDbEntity
  8
CONTINUOUS
100
AcDbLine
 10
14.76377952755906
 20
0.3937007874015748
 30
0.0
 11
14.76377952755906
 21
0.7874015748031495
 31
0.0
  0
LINE
  5
191
330
15F
100
AcDbEntity
  8
CONTINUOUS
100
AcDbLine
 10
15.35433070866142
 20
0.3937007874015748
 30
0.0
 11
15.35433070866142
 21
0.7874015748031495
 31
0.0
  0
LINE
  5
192
330
15F
100
AcDbEntity
  8
CONTINUOUS
100
AcDbLine
 10
16.53543307086614
 20
0.0
 30
0.0
 11
16.53543307086614
 21
0.3937007874015748
 31
0.0
  0
LINE
  5
193
330
15F
100
AcDbEntity
  8
CONTINUOUS
100
AcDbLine
 10
16.53543307086614
 20
0.0
 30
0.0
 11
16.14173228346457
 21
0.0
 31
0.0
  0
LINE
  5
194
330
15F
100
AcDbEntity
  8
CONTINUOUS
100
AcDbLine
 10
16.33858267716536
 20
2.224409448818898
 30
0.0
 11
16.14173228346457
 21
2.224409448818898
 31
0.0
  0
LINE
  5
195
330
15F
100
AcDbEntity
  8
CONTINUOUS
100
AcDbLine
 10
16.33858267716536
 20
4.035433070866142
 30
0.0
 11
16.14173228346457
 21
4.035433070866142
 31
0.0
  0
LINE
  5
196
330
15F
100
AcDbEntity
  8
CONTINUOUS
100
AcDbLine
 10
9.448818897637794
 20
11.06299212598425
 30
0.0
 11
16.14173228346457
 21
11.06299212598425
 31
0.0
  0
LINE
  5
197
330
15F
100
AcDbEntity
  8
CONTINUOUS
100
AcDbLine
 10
10.23622047244094
 20
11.2992125984252
 30
0.0
 11
10.23622047244094
 21
11.49606299212598
 31
0.0
  0
LINE
  5
198
330
15F
100
AcDbEntity
  8
CONTINUOUS
100
AcDbLine
 10
9.448818897637794
 20
11.06299212598425
 30
0.0
 11
9.448818897637794
 21
11.2992125984252
 31
0.0
  0
LINE
  5
199
330
15F
100
AcDbEntity
  8
CONTINUOUS
100
AcDbLine
 10
9.921259842519685
 20
11.06299212598425
 30
0.0
 11
9.921259842519685
 21
11.2992125984252
 31
0.0
  0
LINE
  5
19A
330
15F
100
AcDbEntity
  8
CONTINUOUS
100
AcDbLine
 10
12.20472440944882
 20
11.2992125984252
 30
0.0
 11
12.20472440944882
 21
11.49606299212598
 31
0.0
  0
LINE
  5
19B
330
15F
100
AcDbEntity
  8
CONTINUOUS
100
AcDbLine
 10
16.33858267716536
 20
7.65748031496063
 30
0.0
 11
16.14173228346457
 21
7.65748031496063
 31
0.0
  0
LINE
  5
19C
330
15F
100
AcDbEntity
  8
CONTINUOUS
100
AcDbLine
 10
16.33858267716536
 20
9.468503937007874
 30
0.0
 11
16.14173228346457
 21
9.468503937007874
 31
0.0
  0
LINE
  5
19D
330
15F
100
AcDbEntity
  8
CONTINUOUS
100
AcDbLine
 10
14.17322834645669
 20
11.2992125984252
 30
0.0
 11
14.17322834645669
 21
11.49606299212598
 31
0.0
  0
LINE
  5
19E
330
15F
100
AcDbEntity
  8
CONTINUOUS
100
AcDbLine
 10
14.21259842519685
 20
11.06299212598425
 30
0.0
 11
14.21259842519685
 21
11.2992125984252
 31
0.0
  0
LINE
  5
19F
330
15F
100
AcDbEntity
  8
CONTINUOUS
100
AcDbLine
 10
15.0
 20
11.06299212598425
 30
0.0
 11
15.0
 21
11.2992125984252
 31
0.0
  0
LINE
  5
1A0
330
15F
100
AcDbEntity
  8
CONTINUOUS
100
AcDbLine
 10
15.59055118110236
 20
11.06299212598425
 30
0.0
 11
15.59055118110236
 21
11.2992125984252
 31
0.0
  0
LINE
  5
1A1
330
15F
100
AcDbEntity
  8
CONTINUOUS
100
AcDbLine
 10
16.53543307086614
 20
11.2992125984252
 30
0.0
 11
16.53543307086614
 21
11.69291338582677
 31
0.0
  0
LINE
  5
1A2
330
15F
100
AcDbEntity
  8
CONTINUOUS
100
AcDbLine
 10
16.53543307086614
 20
11.69291338582677
 30
0.0
 11
16.14173228346457
 21
11.69291338582677
 31
0.0
  0
LINE
  5
1A3
330
15F
100
AcDbEntity
  8
CONTINUOUS
100
AcDbLine
 10
0.1968503937007874
 20
5.846456692913386
 30
0.0
 11
0.3937007874015748
 21
5.846456692913386
 31
0.0
  0
LINE
  5
1A4
330
15F
100
AcDbEntity
  8
CONTINUOUS
100
AcDbLine
 10
8.26771653543307
 20
11.2992125984252
 30
0.0
 11
8.26771653543307
 21
11.49606299212598
 31
0.0
  0
LINE
  5
1A5
330
15F
100
AcDbEntity
  8
CONTINUOUS
100
AcDbLine
 10
16.14173228346457
 20
5.846456692913386
 30
0.0
 11
16.33858267716536
 21
5.846456692913386
 31
0.0
  0
MTEXT
  5
1A6
330
15F
100
AcDbEntity
  8
CONTINUOUS
100
AcDbMText
 10
13.12113633043185
 20
11.41800268939162
 30
0.0
 40
0.169212962962963
 41
0.0
 71
     4
 72
     1
  1
{\fArial|b0|i0|c0|p0;\C7;7}{\fArial|b0|i0|c0|p0;\C7;}
 73
     1
 44
1.0
  0
MTEXT
  5
1A7
330
15F
100
AcDbEntity
  8
CONTINUOUS
100
AcDbMText
 10
15.09183537040169
 20
0.2446884484178437
 30
0.0
 40
0.169212962962963
 41
0.0
 71
     4
 72
     1
  1
{\fArial|b0|i0|c0|p0;\C7;8}{\fArial|b0|i0|c0|p0;\C7;}
 73
     1
 44
1.0
  0
MTEXT
  5
1A8
330
15F
100
AcDbEntity
  8
CONTINUOUS
100
AcDbMText
 10
0.2116051125714158
 20
3.115384677676705
 30
0.0
 40
0.169212962962963
 41
0.0
 71
     4
 72
     1
  1
{\fArial|b0|i0|c0|p0;\C7;E}{\fArial|b0|i0|c0|p0;\C7;}
 73
     1
 44
1.0
  0
MTEXT
  5
1A9
330
15F
100
AcDbEntity
  8
CONTINUOUS
100
AcDbMText
 10
9.517224409448819
 20
1.691338582677165
 30
0.0
 40
0.099537037037037
 41
0.0
 71
     4
 72
     1
  1
{\fArial|b0|i0|c0|p0;\C7;Itemref}{\fArial|b0|i0|c0|p0;\C7;}
 73
     1
 44
1.0
  0
MTEXT
  5
1AA
330
15F
100
AcDbEntity
  8
CONTINUOUS
100
AcDbMText
 10
16.20455432801736
 20
3.109376078928551
 30
0.0
 40
0.169212962962963
 41
0.0
 71
     4
 72
     1
  1
{\fArial|b0|i0|c0|p0;\C7;E}{\fArial|b0|i0|c0|p0;\C7;}
 73
     1
 44
1.0
  0
MTEXT
  5
1AB
330
15F
100
AcDbEntity
  8
CONTINUOUS
100
AcDbMText
 10
11.14361630050165
 20
0.241154422576713
 30
0.0
 40
0.169212962962963
 41
0.0
 71
     4
 72
     1
  1
{\fArial|b0|i0|c0|p0;\C7;6}{\fArial|b0|i0|c0|p0;\C7;}
 73
     1
 44
1.0
  0
MTEXT
  5
1AC
330
15F
100
AcDbEntity
  8
CONTINUOUS
100
AcDbMText
 10
14.79875627652866
 20
0.6677165354330709
 30
0.0
 40
0.099537037037037
 41
0.0
 71
     4
 72
     1
  1
{\fArial|b0|i0|c0|p0;\C7;Edition}{\fArial|b0|i0|c0|p0;\C7;}
 73
     1
 44
1.0
  0
MTEXT
  5
1AD
330
15F
100
AcDbEntity
  8
CONTINUOUS
100
AcDbMText
 10
16.20221614537598
 20
6.743440820889212
 30
0.0
 40
0.169212962962963
 41
0.0
 71
     4
 72
     1
  1
{\fArial|b0|i0|c0|p0;\C7;C}{\fArial|b0|i0|c0|p0;\C7;}
 73
     1
 44
1.0
  0
MTEXT
  5
1AE
330
15F
100
AcDbEntity
  8
CONTINUOUS
100
AcDbMText
 10
0.2097395829328402
 20
8.572489037701457
 30
0.0
 40
0.169212962962963
 41
0.0
 71
     4
 72
     1
  1
{\fArial|b0|i0|c0|p0;\C7;B}{\fArial|b0|i0|c0|p0;\C7;}
 73
     1
 44
1.0
  0
MTEXT
  5
1AF
330
15F
100
AcDbEntity
  8
CONTINUOUS
100
AcDbMText
 10
15.42273622047244
 20
0.6677165354330709
 30
0.0
 40
0.099537037037037
 41
0.0
 71
     4
 72
     1
  1
{\fArial|b0|i0|c0|p0;\C7;Sheet}{\fArial|b0|i0|c0|p0;\C7;}
 73
     1
 44
1.0
  0
MTEXT
  5
1B0
330
15F
100
AcDbEntity
  8
CONTINUOUS
100
AcDbMText
 10
14.22952606922059
 20
1.284023344986083
 30
0.0
 40
0.0895833333333333
 41
0.0
 71
     4
 72
     1
  1
{\fArial|b0|i0|c0|p0;\C7;08-jul-2009}{\fArial|b0|i0|c0|p0;\C7;}
 73
     1
 44
1.0
  0
MTEXT
  5
1B1
330
15F
100
AcDbEntity
  8
CONTINUOUS
100
AcDbMText
 10
11.15343839503598
 20
11.42590916968209
 30
0.0
 40
0.169212962962963
 41
0.0
 71
     4
 72
     1
  1
{\fArial|b0|i0|c0|p0;\C7;6}{\fArial|b0|i0|c0|p0;\C7;}
 73
     1
 44
1.0
  0
MTEXT
  5
1B2
330
15F
100
AcDbEntity
  8
CONTINUOUS
100
AcDbMText
 10
16.22258012426181
 20
1.316377952755905
 30
0.0
 40
0.169212962962963
 41
0.0
 71
     4
 72
     1
  1
{\fArial|b0|i0|c0|p0;\C7;F}{\fArial|b0|i0|c0|p0;\C7;}
 73
     1
 44
1.0
  0
MTEXT
  5
1B3
330
15F
100
AcDbEntity
  8
CONTINUOUS
100
AcDbMText
 10
3.278082192895343
 20
0.2467441637986531
 30
0.0
 40
0.169212962962963
 41
0.0
 71
     4
 72
     1
  1
{\fArial|b0|i0|c0|p0;\C7;2}{\fArial|b0|i0|c0|p0;\C7;}
 73
     1
 44
1.0
  0
MTEXT
  5
1B4
330
15F
100
AcDbEntity
  8
CONTINUOUS
100
AcDbMText
 10
0.2236220472440945
 20
1.316377952755905
 30
0.0
 40
0.169212962962963
 41
0.0
 71
     4
 72
     1
  1
{\fArial|b0|i0|c0|p0;\C7;F}{\fArial|b0|i0|c0|p0;\C7;}
 73
     1
 44
1.0
  0
MTEXT
  5
1B5
330
15F
100
AcDbEntity
  8
CONTINUOUS
100
AcDbMText
 10
13.25738188976378
 20
1.455118110236221
 30
0.0
 40
0.099537037037037
 41
0.0
 71
     4
 72
     1
  1
{\fArial|b0|i0|c0|p0;\C7;File name}{\fArial|b0|i0|c0|p0;\C7;}
 73
     1
 44
1.0
  0
MTEXT
  5
1B6
330
15F
100
AcDbEntity
  8
CONTINUOUS
100
AcDbMText
 10
3.279701486829122
 20
11.42167837453843
 30
0.0
 40
0.169212962962963
 41
0.0
 71
     4
 72
     1
  1
{\fArial|b0|i0|c0|p0;\C7;2}{\fArial|b0|i0|c0|p0;\C7;}
 73
     1
 44
1.0
  0
MTEXT
  5
1B7
330
15F
100
AcDbEntity
  8
CONTINUOUS
100
AcDbMText
 10
16.20544438399669
 20
10.35712636872539
 30
0.0
 40
0.169212962962963
 41
0.0
 71
     4
 72
     1
  1
{\fArial|b0|i0|c0|p0;\C7;A}{\fArial|b0|i0|c0|p0;\C7;}
 73
     1
 44
1.0
  0
MTEXT
  5
1B8
330
15F
100
AcDbEntity
  8
CONTINUOUS
100
AcDbMText
 10
16.20852930264209
 20
8.550893045260198
 30
0.0
 40
0.169212962962963
 41
0.0
 71
     4
 72
     1
  1
{\fArial|b0|i0|c0|p0;\C7;B}{\fArial|b0|i0|c0|p0;\C7;}
 73
     1
 44
1.0
  0
MTEXT
  5
1B9
330
15F
100
AcDbEntity
  8
CONTINUOUS
100
AcDbMText
 10
15.62285409127976
 20
11.17952755905512
 30
0.0
 40
0.099537037037037
 41
0.0
 71
     4
 72
     1
  1
{\fArial|b0|i0|c0|p0;\C7;Checked}{\fArial|b0|i0|c0|p0;\C7;}
 73
     1
 44
1.0
  0
MTEXT
  5
1BA
330
15F
100
AcDbEntity
  8
CONTINUOUS
100
AcDbMText
 10
0.1972488876434862
 20
6.749448818897638
 30
0.0
 40
0.169212962962963
 41
0.0
 71
     4
 72
     1
  1
{\fArial|b0|i0|c0|p0;\C7;C}{\fArial|b0|i0|c0|p0;\C7;}
 73
     1
 44
1.0
  0
MTEXT
  5
1BB
330
15F
100
AcDbEntity
  8
CONTINUOUS
100
AcDbMText
 10
9.177053436516731
 20
11.42507770929098
 30
0.0
 40
0.169212962962963
 41
0.0
 71
     4
 72
     1
  1
{\fArial|b0|i0|c0|p0;\C7;5}{\fArial|b0|i0|c0|p0;\C7;}
 73
     1
 44
1.0
  0
MTEXT
  5
1BC
330
15F
100
AcDbEntity
  8
CONTINUOUS
100
AcDbMText
 10
10.77706692913386
 20
1.455118110236221
 30
0.0
 40
0.099537037037037
 41
0.0
 71
     4
 72
     1
  1
{\fArial|b0|i0|c0|p0;\C7;Checked by}{\fArial|b0|i0|c0|p0;\C7;}
 73
     1
 44
1.0
  0
MTEXT
  5
1BD
330
15F
100
AcDbEntity
  8
CONTINUOUS
100
AcDbMText
 10
1.322047244094488
 20
0.2386797558041071
 30
0.0
 40
0.169212962962963
 41
0.0
 71
     4
 72
     1
  1
{\fArial|b0|i0|c0|p0;\C7;1}{\fArial|b0|i0|c0|p0;\C7;}
 73
     1
 44
1.0
  0
MTEXT
  5
1BE
330
15F
100
AcDbEntity
  8
CONTINUOUS
100
AcDbMText
 10
14.24163385826772
 20
1.455118110236221
 30
0.0
 40
0.099537037037037
 41
0.0
 71
     4
 72
     1
  1
{\fArial|b0|i0|c0|p0;\C7;Date}{\fArial|b0|i0|c0|p0;\C7;}
 73
     1
 44
1.0
  0
MTEXT
  5
1BF
330
15F
100
AcDbEntity
  8
CONTINUOUS
100
AcDbMText
 10
15.42273622047244
 20
1.455118110236221
 30
0.0
 40
0.099537037037037
 41
0.0
 71
     4
 72
     1
  1
{\fArial|b0|i0|c0|p0;\C7;Scale}{\fArial|b0|i0|c0|p0;\C7;}
 73
     1
 44
1.0
  0
MTEXT
  5
1C0
330
15F
100
AcDbEntity
  8
CONTINUOUS
100
AcDbMText
 10
10.77706692913386
 20
1.691338582677165
 30
0.0
 40
0.099537037037037
 41
0.0
 71
     4
 72
     1
  1
{\fArial|b0|i0|c0|p0;\C7;Title/Name, designation, material, dimension etc}{\fArial|b0|i0|c0|p0;\C7;}
 73
     1
 44
1.0
  0
MTEXT
  5
1C1
330
15F
100
AcDbEntity
  8
CONTINUOUS
100
AcDbMText
 10
13.12933883066252
 20
0.2326715325182819
 30
0.0
 40
0.169212962962963
 41
0.0
 71
     4
 72
     1
  1
{\fArial|b0|i0|c0|p0;\C7;7}{\fArial|b0|i0|c0|p0;\C7;}
 73
     1
 44
1.0
  0
MTEXT
  5
1C2
330
15F
100
AcDbEntity
  8
CONTINUOUS
100
AcDbMText
 10
11.7613188976378
 20
1.455118110236221
 30
0.0
 40
0.099537037037037
 41
0.0
 71
     4
 72
     1
  1
{\fArial|b0|i0|c0|p0;\C7;Approved by - date}{\fArial|b0|i0|c0|p0;\C7;}
 73
     1
 44
1.0
  0
MTEXT
  5
1C3
330
15F
100
AcDbEntity
  8
CONTINUOUS
100
AcDbMText
 10
1.318233297753524
 20
11.43325787401575
 30
0.0
 40
0.169212962962963
 41
0.0
 71
     4
 72
     1
  1
{\fArial|b0|i0|c0|p0;\C7;1}{\fArial|b0|i0|c0|p0;\C7;}
 73
     1
 44
1.0
  0
MTEXT
  5
1C4
330
15F
100
AcDbEntity
  8
CONTINUOUS
100
AcDbMText
 10
15.00777787525311
 20
11.17562755674827
 30
0.0
 40
0.099537037037037
 41
0.0
 71
     4
 72
     1
  1
{\fArial|b0|i0|c0|p0;\C7;Signature}{\fArial|b0|i0|c0|p0;\C7;}
 73
     1
 44
1.0
  0
MTEXT
  5
1C5
330
15F
100
AcDbEntity
  8
CONTINUOUS
100
AcDbMText
 10
9.517224409448819
 20
1.455118110236221
 30
0.0
 40
0.099537037037037
 41
0.0
 71
     4
 72
     1
  1
{\fArial|b0|i0|c0|p0;\C7;Drawn by}{\fArial|b0|i0|c0|p0;\C7;}
 73
     1
 44
1.0
  0
MTEXT
  5
1C6
330
15F
100
AcDbEntity
  8
CONTINUOUS
100
AcDbMText
 10
0.1778315664276362
 20
10.36548746424398
 30
0.0
 40
0.169212962962963
 41
0.0
 71
     4
 72
     1
  1
{\fArial|b0|i0|c0|p0;\C7;A}{\fArial|b0|i0|c0|p0;\C7;}
 73
     1
 44
1.0
  0
MTEXT
  5
1C7
330
15F
100
AcDbEntity
  8
CONTINUOUS
100
AcDbMText
 10
7.203937007874015
 20
11.42562968096394
 30
0.0
 40
0.169212962962963
 41
0.0
 71
     4
 72
     1
  1
{\fArial|b0|i0|c0|p0;\C7;4}{\fArial|b0|i0|c0|p0;\C7;}
 73
     1
 44
1.0
  0
MTEXT
  5
1C8
330
15F
100
AcDbEntity
  8
CONTINUOUS
100
AcDbMText
 10
0.1932380150583146
 20
4.926407999354095
 30
0.0
 40
0.169212962962963
 41
0.0
 71
     4
 72
     1
  1
{\fArial|b0|i0|c0|p0;\C7;D}{\fArial|b0|i0|c0|p0;\C7;}
 73
     1
 44
1.0
  0
MTEXT
  5
1C9
330
15F
100
AcDbEntity
  8
CONTINUOUS
100
AcDbMText
 10
9.98966535433071
 20
11.17952755905512
 30
0.0
 40
0.099537037037037
 41
0.0
 71
     4
 72
     1
  1
{\fArial|b0|i0|c0|p0;\C7;Revision note}{\fArial|b0|i0|c0|p0;\C7;}
 73
     1
 44
1.0
  0
MTEXT
  5
1CA
330
15F
100
AcDbEntity
  8
CONTINUOUS
100
AcDbMText
 10
9.50273528812437
 20
1.29070912759135
 30
0.0
 40
0.0895833333333333
 41
0.0
 71
     4
 72
     1
  1
{\fArial|b0|i0|c0|p0;\C7;Rajagopalan}{\fArial|b0|i0|c0|p0;\C7;}
 73
     1
 44
1.0
  0
MTEXT
  5
1CB
330
15F
100
AcDbEntity
  8
CONTINUOUS
100
AcDbMText
 10
5.240045562500984
 20
0.2419412986903968
 30
0.0
 40
0.169212962962963
 41
0.0
 71
     4
 72
     1
  1
{\fArial|b0|i0|c0|p0;\C7;3}{\fArial|b0|i0|c0|p0;\C7;}
 73
     1
 44
1.0
  0
MTEXT
  5
1CC
330
15F
100
AcDbEntity
  8
CONTINUOUS
100
AcDbMText
 10
10.10777559055118
 20
1.691338582677165
 30
0.0
 40
0.099537037037037
 41
0.0
 71
     4
 72
     1
  1
{\fArial|b0|i0|c0|p0;\C7;Quantity}{\fArial|b0|i0|c0|p0;\C7;}
 73
     1
 44
1.0
  0
MTEXT
  5
1CD
330
15F
100
AcDbEntity
  8
CONTINUOUS
100
AcDbMText
 10
14.28100393700787
 20
11.17952755905512
 30
0.0
 40
0.099537037037037
 41
0.0
 71
     4
 72
     1
  1
{\fArial|b0|i0|c0|p0;\C7;Date}{\fArial|b0|i0|c0|p0;\C7;}
 73
     1
 44
1.0
  0
MTEXT
  5
1CE
330
15F
100
AcDbEntity
  8
CONTINUOUS
100
AcDbMText
 10
5.255301347864843
 20
11.4212642135048
 30
0.0
 40
0.169212962962963
 41
0.0
 71
     4
 72
     1
  1
{\fArial|b0|i0|c0|p0;\C7;3}{\fArial|b0|i0|c0|p0;\C7;}
 73
     1
 44
1.0
  0
MTEXT
  5
1CF
330
15F
100
AcDbEntity
  8
CONTINUOUS
100
AcDbMText
 10
12.47787235290047
 20
0.5686527537548621
 30
0.0
 40
0.0895833333333333
 41
0.0
 71
     4
 72
     1
  1
{\fArial|b0|i0|c0|p0;\C7;CRP106-01}{\fArial|b0|i0|c0|p0;\C7;}
 73
     1
 44
1.0
  0
MTEXT
  5
1D0
330
15F
100
AcDbEntity
  8
CONTINUOUS
100
AcDbMText
 10
14.24163385826772
 20
1.691338582677165
 30
0.0
 40
0.099537037037037
 41
0.0
 71
     4
 72
     1
  1
{\fArial|b0|i0|c0|p0;\C7;Article No./Reference}{\fArial|b0|i0|c0|p0;\C7;}
 73
     1
 44
1.0
  0
MTEXT
  5
1D1
330
15F
100
AcDbEntity
  8
CONTINUOUS
100
AcDbMText
 10
9.477460245447835
 20
11.17779863012118
 30
0.0
 40
0.099537037037037
 41
0.0
 71
     4
 72
     1
  1
{\fArial|b0|i0|c0|p0;\C7;RevNo}{\fArial|b0|i0|c0|p0;\C7;}
 73
     1
 44
1.0
  0
MTEXT
  5
1D2
330
15F
100
AcDbEntity
  8
CONTINUOUS
100
AcDbMText
 10
15.08964146891917
 20
11.42563088244339
 30
0.0
 40
0.169212962962963
 41
0.0
 71
     4
 72
     1
  1
{\fArial|b0|i0|c0|p0;\C7;8}{\fArial|b0|i0|c0|p0;\C7;}
 73
     1
 44
1.0
  0
MTEXT
  5
1D3
330
15F
100
AcDbEntity
  8
CONTINUOUS
100
AcDbMText
 10
16.2162301116063
 20
4.926408600093819
 30
0.0
 40
0.169212962962963
 41
0.0
 71
     4
 72
     1
  1
{\fArial|b0|i0|c0|p0;\C7;D}{\fArial|b0|i0|c0|p0;\C7;}
 73
     1
 44
1.0
  0
ENDBLK
  5
161
330
15F
100
AcDbEntity
  8
0
100
AcDbBlockEnd
  0
ENDSEC
  0
SECTION
  2
ENTITIES
  0
LINE
  5
5E
330
1F
100
AcDbEntity
  8
VISIBLE
100
AcDbLine
 10
5.128274271807324
 20
4.300780649260275
 30
0.0
 11
5.128274271807324
 21
7.300780649260275
 31
0.0
  0
CIRCLE
  5
5F
330
1F
100
AcDbEntity
  8
VISIBLE
100
AcDbCircle
 10
8.378274271807324
 20
6.550780649260275
 30
0.0
 40
0.266
  0
LINE
  5
60
330
1F
100
AcDbEntity
  8
VISIBLE
100
AcDbLine
 10
5.128274271807324
 20
7.300780649260275
 30
0.0
 11
9.128274271807324
 21
7.300780649260275
 31
0.0
  0
LINE
  5
61
330
1F
100
AcDbEntity
  8
VISIBLE
100
AcDbLine
 10
9.128274271807324
 20
7.300780649260275
 30
0.0
 11
9.128274271807324
 21
4.300780649260275
 31
0.0
  0
CIRCLE
  5
62
330
1F
100
AcDbEntity
  8
VISIBLE
100
AcDbCircle
 10
8.378274271807324
 20
5.050780649260275
 30
0.0
 40
0.161999999999999
  0
CIRCLE
  5
63
330
1F
100
AcDbEntity
  8
VISIBLE
100
AcDbCircle
 10
5.948274271807324
 20
4.870780649260276
 30
0.0
 40
0.0800000000000001
  0
CIRCLE
  5
64
330
1F
100
AcDbEntity
  8
VISIBLE
100
AcDbCircle
 10
8.378274271807324
 20
6.550780649260275
 30
0.0
 40
0.161999999999999
  0
CIRCLE
  5
65
330
1F
100
AcDbEntity
  8
VISIBLE
100
AcDbCircle
 10
7.808274271807324
 20
4.870780649260276
 30
0.0
 40
0.0800000000000001
  0
CIRCLE
  5
66
330
1F
100
AcDbEntity
  8
VISIBLE
100
AcDbCircle
 10
7.808274271807324
 20
6.730780649260275
 30
0.0
 40
0.0800000000000001
  0
CIRCLE
  5
67
330
1F
100
AcDbEntity
  8
VISIBLE
100
AcDbCircle
 10
5.948274271807324
 20
6.730780649260275
 30
0.0
 40
0.0800000000000001
  0
CIRCLE
  5
68
330
1F
100
AcDbEntity
  8
VISIBLE
100
AcDbCircle
 10
8.378274271807324
 20
5.050780649260275
 30
0.0
 40
0.266
  0
LINE
  5
69
330
1F
100
AcDbEntity
  8
VISIBLE
100
AcDbLine
 10
9.128274271807324
 20
4.300780649260275
 30
0.0
 11
5.128274271807324
 21
4.300780649260275
 31
0.0
  0
CIRCLE
  5
6A
330
1F
100
AcDbEntity
  8
VISIBLE
100
AcDbCircle
 10
6.878274271807324
 20
5.800780649260275
 30
0.0
 40
0.7510000000000003
  0
DIMENSION
  5
6C
330
1F
100
AcDbEntity
  8
DIMENSIONS
100
AcDbDimension
  2
D1
 10
0.0
 20
0.0
 30
0.0
 11
12.25654854361465
 21
16.41124142624262
 31
0.0
 70
    32
  1
<>
 71
     5
 42
-1.0
  3
Standard
100
AcDbAlignedDimension
 13
5.128274271807324
 23
7.300780649260275
 33
0.0
 14
9.128274271807324
 24
7.300780649260275
 34
0.0
100
AcDbRotatedDimension
1001
ACAD
1000
DSTYLE
1002
{
1070
    76
1070
     0
1070
    75
1070
     0
1070
   282
1070
     0
1070
   281
1070
     0
1070
    77
1070
     1
1070
    79
1070
     0
1070
    78
1070
     0
1070
   272
1070
     3
1070
   271
1070
     3
1070
   179
1070
     3
1070
   140
1040
0.0895833333333333
1070
    71
1070
     0
1070
    72
1070
     0
1070
    48
1040
0.0000787401574803
1070
    47
1040
0.0001968503937008
1002
}
  0
DIMENSION
  5
7A
330
1F
100
AcDbEntity
  8
DIMENSIONS
100
AcDbDimension
  2
D2
 10
0.0
 20
0.0
 30
0.0
 11
11.97190124031126
 21
15.13744780773253
 31
0.0
 70
    32
  1
<>
 71
     5
 42
-1.0
  3
Standard
100
AcDbAlignedDimension
 13
7.629274271807324
 23
5.800780649260275
 33
0.0
 14
6.127274271807323
 24
5.800780649260275
 34
0.0
100
AcDbRotatedDimension
1001
ACAD
1000
DSTYLE
1002
{
1070
    76
1070
     0
1070
    75
1070
     0
1070
   282
1070
     0
1070
   281
1070
     0
1070
    77
1070
     1
1070
    79
1070
     0
1070
    78
1070
     0
1070
   272
1070
     3
1070
   271
1070
     3
1070
   179
1070
     3
1070
   140
1040
0.0895833333333333
1070
    71
1070
     0
1070
    72
1070
     0
1070
    48
1040
0.0000787401574803
1070
    47
1040
0.0001968503937008
1002
}
  0
DIMENSION
  5
88
330
1F
100
AcDbEntity
  8
DIMENSIONS
100
AcDbDimension
  2
D3
 10
9.128274271807324
 20
4.300780649260275
 30
0.0
 11
14.80452947541485
 21
11.60156129852055
 31
0.0
 70
    38
  1
<>
 71
     5
 42
-1.0
 53
360.0
  3
Standard
100
AcDbOrdinateDimension
 13
9.128274271807324
 23
4.300780649260275
 33
0.0
 14
14.80452947541485
 24
11.60156129852055
 34
0.0
1001
ACAD
1000
DSTYLE
1002
{
1070
    76
1070
     0
1070
    75
1070
     0
1070
   282
1070
     0
1070
   281
1070
     0
1070
    77
1070
     0
1070
    79
1070
     0
1070
    78
1070
     0
1070
   272
1070
     3
1070
   271
1070
     3
1070
   179
1070
     3
1070
   140
1040
0.0895833333333333
1070
    71
1070
     0
1070
    72
1070
     0
1070
    48
1040
0.0000787401574803
1070
    47
1040
0.0001968503937008
1002
}
  0
DIMENSION
  5
92
330
1F
100
AcDbEntity
  8
DIMENSIONS
100
AcDbDimension
  2
D4
 10
9.128274271807324
 20
4.300780649260275
 30
0.0
 11
14.80452947541485
 21
12.17156129852055
 31
0.0
 70
    38
  1
<>
 71
     5
 42
-1.0
 53
360.0
  3
Standard
100
AcDbOrdinateDimension
 13
5.948274271807324
 23
4.870780649260276
 33
0.0
 14
14.80452947541485
 24
12.17156129852055
 34
0.0
1001
ACAD
1000
DSTYLE
1002
{
1070
    76
1070
     0
1070
    75
1070
     0
1070
   282
1070
     0
1070
   281
1070
     0
1070
    77
1070
     0
1070
    79
1070
     0
1070
    78
1070
     0
1070
   272
1070
     3
1070
   271
1070
     3
1070
   179
1070
     3
1070
   140
1040
0.0895833333333333
1070
    71
1070
     0
1070
    72
1070
     0
1070
    48
1040
0.0000787401574803
1070
    47
1040
0.0001968503937008
1002
}
  0
DIMENSION
  5
9C
330
1F
100
AcDbEntity
  8
DIMENSIONS
100
AcDbDimension
  2
D5
 10
9.128274271807324
 20
4.300780649260275
 30
0.0
 11
14.80452947541485
 21
12.35156129852055
 31
0.0
 70
    38
  1
<>
 71
     5
 42
-1.0
 53
360.0
  3
Standard
100
AcDbOrdinateDimension
 13
8.378274271807324
 23
5.050780649260275
 33
0.0
 14
14.80452947541485
 24
12.35156129852055
 34
0.0
1001
ACAD
1000
DSTYLE
1002
{
1070
    76
1070
     0
1070
    75
1070
     0
1070
   282
1070
     0
1070
   281
1070
     0
1070
    77
1070
     0
1070
    79
1070
     0
1070
    78
1070
     0
1070
   272
1070
     3
1070
   271
1070
     3
1070
   179
1070
     3
1070
   140
1040
0.0895833333333333
1070
    71
1070
     0
1070
    72
1070
     0
1070
    48
1040
0.0000787401574803
1070
    47
1040
0.0001968503937008
1002
}
  0
DIMENSION
  5
A6
330
1F
100
AcDbEntity
  8
DIMENSIONS
100
AcDbDimension
  2
D6
 10
9.128274271807324
 20
4.300780649260275
 30
0.0
 11
14.80452947541485
 21
13.10156129852055
 31
0.0
 70
    38
  1
<>
 71
     5
 42
-1.0
 53
360.0
  3
Standard
100
AcDbOrdinateDimension
 13
6.878274271807324
 23
5.800780649260275
 33
0.0
 14
14.80452947541485
 24
13.10156129852055
 34
0.0
1001
ACAD
1000
DSTYLE
1002
{
1070
    76
1070
     0
1070
    75
1070
     0
1070
   282
1070
     0
1070
   281
1070
     0
1070
    77
1070
     0
1070
    79
1070
     0
1070
    78
1070
     0
1070
   272
1070
     3
1070
   271
1070
     3
1070
   179
1070
     3
1070
   140
1040
0.0895833333333333
1070
    71
1070
     0
1070
    72
1070
     0
1070
    48
1040
0.0000787401574803
1070
    47
1040
0.0001968503937008
1002
}
  0
DIMENSION
  5
B0
330
1F
100
AcDbEntity
  8
DIMENSIONS
100
AcDbDimension
  2
D7
 10
9.128274271807324
 20
4.300780649260275
 30
0.0
 11
14.80452947541485
 21
14.03156129852055
 31
0.0
 70
    38
  1
<>
 71
     5
 42
-1.0
 53
360.0
  3
Standard
100
AcDbOrdinateDimension
 13
5.948274271807324
 23
6.730780649260275
 33
0.0
 14
14.80452947541485
 24
14.03156129852055
 34
0.0
1001
ACAD
1000
DSTYLE
1002
{
1070
    76
1070
     0
1070
    75
1070
     0
1070
   282
1070
     0
1070
   281
1070
     0
1070
    77
1070
     0
1070
    79
1070
     0
1070
    78
1070
     0
1070
   272
1070
     3
1070
   271
1070
     3
1070
   179
1070
     3
1070
   140
1040
0.0895833333333333
1070
    71
1070
     0
1070
    72
1070
     0
1070
    48
1040
0.0000787401574803
1070
    47
1040
0.0001968503937008
1002
}
  0
DIMENSION
  5
BA
330
1F
100
AcDbEntity
  8
DIMENSIONS
100
AcDbDimension
  2
D8
 10
9.128274271807324
 20
4.300780649260275
 30
0.0
 11
14.80452947541485
 21
13.85156129852055
 31
0.0
 70
    38
  1
<>
 71
     5
 42
-1.0
 53
360.0
  3
Standard
100
AcDbOrdinateDimension
 13
8.378274271807324
 23
6.550780649260275
 33
0.0
 14
14.80452947541485
 24
13.85156129852055
 34
0.0
1001
ACAD
1000
DSTYLE
1002
{
1070
    76
1070
     0
1070
    75
1070
     0
1070
   282
1070
     0
1070
   281
1070
     0
1070
    77
1070
     0
1070
    79
1070
     0
1070
    78
1070
     0
1070
   272
1070
     3
1070
   271
1070
     3
1070
   179
1070
     3
1070
   140
1040
0.0895833333333333
1070
    71
1070
     0
1070
    72
1070
     0
1070
    48
1040
0.0000787401574803
1070
    47
1040
0.0001968503937008
1002
}
  0
DIMENSION
  5
C4
330
1F
100
AcDbEntity
  8
DIMENSIONS
100
AcDbDimension
  2
D9
 10
9.128274271807324
 20
4.300780649260275
 30
0.0
 11
14.80452947541485
 21
11.60156129852055
 31
0.0
 70
    38
  1
<>
 71
     5
 42
-1.0
 53
360.0
  3
Standard
100
AcDbOrdinateDimension
 13
9.128274271807324
 23
4.300780649260275
 33
0.0
 14
14.80452947541485
 24
11.60156129852055
 34
0.0
1001
ACAD
1000
DSTYLE
1002
{
1070
    76
1070
     0
1070
    75
1070
     0
1070
   282
1070
     0
1070
   281
1070
     0
1070
    77
1070
     0
1070
    79
1070
     0
1070
    78
1070
     0
1070
   272
1070
     3
1070
   271
1070
     3
1070
   179
1070
     3
1070
   140
1040
0.0895833333333333
1070
    71
1070
     0
1070
    72
1070
     0
1070
    48
1040
0.0000787401574803
1070
    47
1040
0.0001968503937008
1002
}
  0
DIMENSION
  5
CE
330
1F
100
AcDbEntity
  8
DIMENSIONS
100
AcDbDimension
  2
D10
 10
9.128274271807324
 20
4.300780649260275
 30
0.0
 11
14.25654854361465
 21
11.0535048537367
 31
0.0
 70
    38
  1
<>
 71
     5
 42
-1.0
 53
90.0
  3
Standard
100
AcDbOrdinateDimension
 13
9.128274271807324
 23
4.300780649260275
 33
0.0
 14
14.25654854361465
 24
11.0535048537367
 34
0.0
1001
ACAD
1000
DSTYLE
1002
{
1070
    76
1070
     0
1070
    75
1070
     0
1070
   282
1070
     0
1070
   281
1070
     0
1070
    77
1070
     0
1070
    79
1070
     0
1070
    78
1070
     0
1070
   272
1070
     3
1070
   271
1070
     3
1070
   179
1070
     3
1070
   140
1040
0.0895833333333333
1070
    71
1070
     0
1070
    72
1070
     0
1070
    48
1040
0.0000787401574803
1070
    47
1040
0.0001968503937008
1002
}
  0
DIMENSION
  5
D8
330
1F
100
AcDbEntity
  8
DIMENSIONS
100
AcDbDimension
  2
D11
 10
9.128274271807324
 20
4.300780649260275
 30
0.0
 11
13.50654854361465
 21
11.0535048537367
 31
0.0
 70
    38
  1
<>
 71
     5
 42
-1.0
 53
90.0
  3
Standard
100
AcDbOrdinateDimension
 13
8.378274271807324
 23
6.550780649260275
 33
0.0
 14
13.50654854361465
 24
11.0535048537367
 34
0.0
1001
ACAD
1000
DSTYLE
1002
{
1070
    76
1070
     0
1070
    75
1070
     0
1070
   282
1070
     0
1070
   281
1070
     0
1070
    77
1070
     0
1070
    79
1070
     0
1070
    78
1070
     0
1070
   272
1070
     3
1070
   271
1070
     3
1070
   179
1070
     3
1070
   140
1040
0.0895833333333333
1070
    71
1070
     0
1070
    72
1070
     0
1070
    48
1040
0.0000787401574803
1070
    47
1040
0.0001968503937008
1002
}
  0
DIMENSION
  5
E2
330
1F
100
AcDbEntity
  8
DIMENSIONS
100
AcDbDimension
  2
D12
 10
9.128274271807324
 20
4.300780649260275
 30
0.0
 11
12.93654854361465
 21
11.0535048537367
 31
0.0
 70
    38
  1
<>
 71
     5
 42
-1.0
 53
90.0
  3
Standard
100
AcDbOrdinateDimension
 13
7.808274271807324
 23
6.730780649260275
 33
0.0
 14
12.93654854361465
 24
11.0535048537367
 34
0.0
1001
ACAD
1000
DSTYLE
1002
{
1070
    76
1070
     0
1070
    75
1070
     0
1070
   282
1070
     0
1070
   281
1070
     0
1070
    77
1070
     0
1070
    79
1070
     0
1070
    78
1070
     0
1070
   272
1070
     3
1070
   271
1070
     3
1070
   179
1070
     3
1070
   140
1040
0.0895833333333333
1070
    71
1070
     0
1070
    72
1070
     0
1070
    48
1040
0.0000787401574803
1070
    47
1040
0.0001968503937008
1002
}
  0
DIMENSION
  5
EC
330
1F
100
AcDbEntity
  8
DIMENSIONS
100
AcDbDimension
  2
D13
 10
9.128274271807324
 20
4.300780649260275
 30
0.0
 11
12.00654854361465
 21
11.0535048537367
 31
0.0
 70
    38
  1
<>
 71
     5
 42
-1.0
 53
90.0
  3
Standard
100
AcDbOrdinateDimension
 13
6.878274271807324
 23
5.800780649260275
 33
0.0
 14
12.00654854361465
 24
11.0535048537367
 34
0.0
1001
ACAD
1000
DSTYLE
1002
{
1070
    76
1070
     0
1070
    75
1070
     0
1070
   282
1070
     0
1070
   281
1070
     0
1070
    77
1070
     0
1070
    79
1070
     0
1070
    78
1070
     0
1070
   272
1070
     3
1070
   271
1070
     3
1070
   179
1070
     3
1070
   140
1040
0.0895833333333333
1070
    71
1070
     0
1070
    72
1070
     0
1070
    48
1040
0.0000787401574803
1070
    47
1040
0.0001968503937008
1002
}
  0
DIMENSION
  5
F6
330
1F
100
AcDbEntity
  8
DIMENSIONS
100
AcDbDimension
  2
D14
 10
9.128274271807324
 20
4.300780649260275
 30
0.0
 11
11.07654854361465
 21
11.0535048537367
 31
0.0
 70
    38
  1
<>
 71
     5
 42
-1.0
 53
90.0
  3
Standard
100
AcDbOrdinateDimension
 13
5.948274271807324
 23
6.730780649260275
 33
0.0
 14
11.07654854361465
 24
11.0535048537367
 34
0.0
1001
ACAD
1000
DSTYLE
1002
{
1070
    76
1070
     0
1070
    75
1070
     0
1070
   282
1070
     0
1070
   281
1070
     0
1070
    77
1070
     0
1070
    79
1070
     0
1070
    78
1070
     0
1070
   272
1070
     3
1070
   271
1070
     3
1070
   179
1070
     3
1070
   140
1040
0.0895833333333333
1070
    71
1070
     0
1070
    72
1070
     0
1070
    48
1040
0.0000787401574803
1070
    47
1040
0.0001968503937008
1002
}
  0
DIMENSION
  5
100
330
1F
100
AcDbEntity
  8
DIMENSIONS
100
AcDbDimension
  2
D15
 10
0.0
 20
0.0
 30
0.0
 11
11.86385820043368
 21
15.74480828713244
 31
0.0
 70
    32
  1
2X COUNTER BORE FOR\P<> SHCS
 71
     5
 42
-1.0
  3
Standard
100
AcDbAlignedDimension
 13
8.112274271807324
 23
6.550780649260276
 33
0.0
 14
8.644274271807324
 24
6.550780649260274
 34
0.0
100
AcDbRotatedDimension
1001
ACAD
1000
DSTYLE
1002
{
1070
    76
1070
     0
1070
    75
1070
     0
1070
   282
1070
     0
1070
   281
1070
     0
1070
    77
1070
     1
1070
    79
1070
     0
1070
    78
1070
     0
1070
   272
1070
     3
1070
   271
1070
     3
1070
   179
1070
     3
1070
   140
1040
0.0895833333333333
1070
    71
1070
     0
1070
    72
1070
     0
1070
    48
1040
0.0000787401574803
1070
    47
1040
0.0001968503937008
1002
}
  0
DIMENSION
  5
10E
330
1F
100
AcDbEntity
  8
DIMENSIONS
100
AcDbDimension
  2
D16
 10
0.0
 20
0.0
 30
0.0
 11
9.610613545094878
 21
14.59346356729823
 31
0.0
 70
    32
  1
4X <>
 71
     5
 42
-1.0
  3
Standard
100
AcDbAlignedDimension
 13
5.948274271807324
 23
6.650780649260275
 33
0.0
 14
5.948274271807324
 24
6.810780649260275
 34
0.0
100
AcDbRotatedDimension
1001
ACAD
1000
DSTYLE
1002
{
1070
    76
1070
     0
1070
    75
1070
     0
1070
   282
1070
     0
1070
   281
1070
     0
1070
    77
1070
     1
1070
    79
1070
     0
1070
    78
1070
     0
1070
   272
1070
     3
1070
   271
1070
     3
1070
   179
1070
     3
1070
   140
1040
0.0895833333333333
1070
    71
1070
     0
1070
    72
1070
     0
1070
    48
1040
0.0000787401574803
1070
    47
1040
0.0001968503937008
1002
}
  0
LINE
  5
11C
330
1F
100
AcDbEntity
  8
VISIBLE
100
AcDbLine
 10
3.419635712631107
 20
7.300780649260275
 30
0.0
 11
2.919635712631107
 21
7.300780649260275
 31
0.0
  0
LINE
  5
11D
330
1F
100
AcDbEntity
  8
VISIBLE
100
AcDbLine
 10
2.919635712631107
 20
7.300780649260275
 30
0.0
 11
2.919635712631107
 21
4.300780649260275
 31
0.0
  0
LINE
  5
11E
330
1F
100
AcDbEntity
  8
VISIBLE
100
AcDbLine
 10
3.419635712631107
 20
4.300780649260275
 30
0.0
 11
2.919635712631107
 21
4.300780649260275
 31
0.0
  0
LINE
  5
11F
330
1F
100
AcDbEntity
  8
VISIBLE
100
AcDbLine
 10
3.419635712631107
 20
4.300780649260275
 30
0.0
 11
3.419635712631107
 21
7.300780649260275
 31
0.0
  0
DIMENSION
  5
120
330
1F
100
AcDbEntity
  8
DIMENSIONS
100
AcDbDimension
  2
D17
 10
0.0
 20
0.0
 30
0.0
 11
5.695613320418232
 21
13.10156129852055
 31
0.0
 70
    32
  1
<>
 71
     5
 42
-1.0
 53
270.0
  3
Standard
100
AcDbAlignedDimension
 13
2.919635712631107
 23
7.300780649260275
 33
0.0
 14
2.919635712631107
 24
4.300780649260275
 34
0.0
 50
270.0
100
AcDbRotatedDimension
1001
ACAD
1000
DSTYLE
1002
{
1070
    76
1070
     0
1070
    75
1070
     0
1070
   282
1070
     0
1070
   281
1070
     0
1070
    77
1070
     1
1070
    79
1070
     0
1070
    78
1070
     0
1070
   272
1070
     3
1070
   271
1070
     3
1070
   179
1070
     3
1070
   140
1040
0.0895833333333333
1070
    71
1070
     0
1070
    72
1070
     0
1070
    48
1040
0.0000787401574803
1070
    47
1040
0.0001968503937008
1002
}
  0
DIMENSION
  5
12E
330
1F
100
AcDbEntity
  8
DIMENSIONS
100
AcDbDimension
  2
D18
 10
0.0
 20
0.0
 30
0.0
 11
6.589271425262213
 21
15.31393348513626
 31
0.0
 70
    32
  1
<>
 71
     5
 42
-1.0
 53
180.0
  3
Standard
100
AcDbAlignedDimension
 13
3.419635712631107
 23
7.300780649260275
 33
0.0
 14
2.919635712631107
 24
7.300780649260275
 34
0.0
 50
180.0
100
AcDbRotatedDimension
1001
ACAD
1000
DSTYLE
1002
{
1070
    76
1070
     0
1070
    75
1070
     0
1070
   282
1070
     0
1070
   281
1070
     0
1070
    77
1070
     1
1070
    79
1070
     0
1070
    78
1070
     0
1070
   272
1070
     3
1070
   271
1070
     3
1070
   179
1070
     3
1070
   140
1040
0.0895833333333333
1070
    71
1070
     0
1070
    72
1070
     0
1070
    48
1040
0.0000787401574803
1070
    47
1040
0.0001968503937008
1002
}
  0
LINE
  5
13C
330
1F
100
AcDbEntity
  8
VISIBLE
100
AcDbLine
 10
14.97699154421394
 20
8.32328014154624
 30
0.0
 11
14.62343815362067
 21
8.119155996314309
 31
0.0
  0
LINE
  5
13D
330
1F
100
AcDbEntity
  8
VISIBLE
100
AcDbLine
 10
11.79501102887448
 20
7.302659415386582
 30
0.0
 11
11.79501102887448
 21
9.75214915816976
 31
0.0
  0
ELLIPSE
  5
13E
330
1F
100
AcDbEntity
  8
VISIBLE
100
AcDbEllipse
 10
14.09310806773076
 20
7.81296977846641
 30
0.0
 11
-0.1329999999999973
 21
0.2303627574066596
 31
0.0
210
0.0
220
0.0
230
0.9999999999999999
 40
0.5773502691896157
 41
3.141592653589785
 42
5.497787143782137
  0
ELLIPSE
  5
13F
330
1F
100
AcDbEntity
  8
VISIBLE
100
AcDbEllipse
 10
14.09310806773076
 20
7.812969778466408
 30
0.0
 11
0.1329999999999973
 21
-0.2303627574066631
 31
0.0
210
0.0
220
0.0
230
1.0
 40
0.5773502691896315
 41
-3.141592653589768
 42
0.0
  0
ELLIPSE
  5
140
330
1F
100
AcDbEntity
  8
VISIBLE
100
AcDbEllipse
 10
14.09310806774012
 20
7.812969778425842
 30
0.0
 11
-0.1330000000050919
 21
0.2303627574496918
 31
0.0
210
0.0
220
0.0
230
1.0
 40
0.5773502691608671
 41
-0.7853981633480983
 42
0.0
  0
ELLIPSE
  5
141
330
1F
100
AcDbEntity
  8
VISIBLE
100
AcDbEllipse
 10
14.31443249024213
 20
7.940751493381595
 30
0.0
 11
0.132999999999992
 21
-0.2303627574066497
 31
0.0
210
0.0
220
0.0
230
1.0
 40
0.5773502691895935
 41
-2.158805407985313
 42
-0.9827872456044429
  0
LINE
  5
142
330
1F
100
AcDbEntity
  8
VISIBLE
100
AcDbLine
 10
11.79501102887448
 20
9.752149158169761
 30
0.0
 11
14.62343815362067
 21
8.119155996314309
 31
0.0
  0
ELLIPSE
  5
143
330
1F
100
AcDbEntity
  8
VISIBLE
100
AcDbEllipse
 10
13.38600128654421
 20
8.01709392369834
 30
0.0
 11
0.3755000000000024
 21
-0.6503850782421106
 31
0.0
210
0.0
220
0.0
230
1.0
 40
0.577350269189627
 41
-2.651421587669789
 42
-0.4901710659200176
  0
LINE
  5
144
330
1F
100
AcDbEntity
  8
VISIBLE
100
AcDbLine
 10
14.62343815362067
 20
8.119155996314307
 30
0.0
 11
14.62343815362067
 21
5.66966625353113
 31
0.0
  0
ELLIPSE
  5
145
330
1F
100
AcDbEntity
  8
VISIBLE
100
AcDbEllipse
 10
14.31443249024211
 20
6.716006621989978
 30
0.0
 11
0.1329999999999902
 21
-0.2303627574066258
 31
0.0
210
0.0
220
0.0
230
1.0
 40
0.5773502691895088
 41
-2.15880540798544
 42
-0.982787245604446
  0
ELLIPSE
  5
146
330
1F
100
AcDbEntity
  8
VISIBLE
100
AcDbEllipse
 10
12.37483858944745
 20
7.433298868335018
 30
0.0
 11
-0.04000000000000092
 21
0.06928203230275454
 31
0.0
210
0.0
220
0.0
230
0.9999999999999999
 40
0.577350269189644
 41
3.141592653589826
 42
5.497787143782138
  0
ELLIPSE
  5
147
330
1F
100
AcDbEntity
  8
VISIBLE
100
AcDbEllipse
 10
12.37483858944745
 20
7.433298868335019
 30
0.0
 11
0.04000000000000269
 21
-0.06928203230275454
 31
0.0
210
0.0
220
0.0
230
1.0
 40
0.577350269189643
 41
-3.141592653589879
 42
0.0
  0
ELLIPSE
  5
148
330
1F
100
AcDbEntity
  8
VISIBLE
100
AcDbEllipse
 10
12.37483858944878
 20
7.433298868329242
 30
0.0
 11
-0.04000000000072745
 21
0.06928203230888208
 31
0.0
210
0.0
220
0.0
230
1.0
 40
0.5773502691760122
 41
-0.7853981633741133
 42
0.0
  0
LINE
  5
149
330
1F
100
AcDbEntity
  8
VISIBLE
100
AcDbLine
 10
14.97699154421394
 20
8.32328014154624
 30
0.0
 11
12.14856441946776
 21
9.956273303401693
 31
0.0
  0
LINE
  5
14A
330
1F
100
AcDbEntity
  8
VISIBLE
100
AcDbLine
 10
14.97699154421394
 20
5.87379039876307
 30
0.0
 11
14.62343815362067
 21
5.66966625353114
 31
0.0
  0
ELLIPSE
  5
14B
330
1F
100
AcDbEntity
  8
VISIBLE
100
AcDbEllipse
 10
13.69005720245443
 20
6.673957048072235
 30
0.0
 11
-0.03999999999999737
 21
0.06928203230275454
 31
0.0
210
0.0
220
0.0
230
1.0
 40
0.5773502691896211
 41
3.141592653589826
 42
5.497787143782163
  0
ELLIPSE
  5
14C
330
1F
100
AcDbEntity
  8
VISIBLE
100
AcDbEllipse
 10
13.69005720245443
 20
6.673957048072236
 30
0.0
 11
0.03999999999999382
 21
-0.06928203230275543
 31
0.0
210
0.0
220
0.0
230
1.0
 40
0.5773502691896116
 41
-3.141592653589622
 42
0.0
  0
ELLIPSE
  5
14D
330
1F
100
AcDbEntity
  8
VISIBLE
100
AcDbEllipse
 10
13.69005720244976
 20
6.673957048092449
 30
0.0
 11
-0.03999999999745897
 21
0.06928203228131302
 31
0.0
210
0.0
220
0.0
230
0.9999999999999998
 40
0.5773502692372496
 41
-0.7853981634791865
 42
0.0
  0
ELLIPSE
  5
14E
330
1F
100
AcDbEntity
  8
VISIBLE
100
AcDbEllipse
 10
13.69005720245443
 20
8.192640688597804
 30
0.0
 11
-0.0400000000000027
 21
0.0692820323027572
 31
0.0
210
0.0
220
0.0
230
1.0
 40
0.5773502691896513
 41
3.141592653589793
 42
5.497787143782142
  0
ELLIPSE
  5
14F
330
1F
100
AcDbEntity
  8
VISIBLE
100
AcDbEllipse
 10
13.69005720245443
 20
8.192640688597802
 30
0.0
 11
0.04000000000000092
 21
-0.06928203230275365
 31
0.0
210
0.0
220
0.0
230
1.0
 40
0.5773502691896303
 41
-3.141592653589831
 42
0.0
  0
ELLIPSE
  5
150
330
1F
100
AcDbEntity
  8
VISIBLE
100
AcDbEllipse
 10
13.69005720244504
 20
8.192640688638466
 30
0.0
 11
-0.03999999999488146
 21
0.06928203225962548
 31
0.0
210
0.0
220
0.0
230
0.9999999999999999
 40
0.5773502692854778
 41
-0.7853981635617174
 42
0.0
  0
ELLIPSE
  5
151
330
1F
100
AcDbEntity
  8
VISIBLE
100
AcDbEllipse
 10
12.37483858944745
 20
8.951982508860588
 30
0.0
 11
-0.03999999999999915
 21
0.06928203230275543
 31
0.0
210
0.0
220
0.0
230
1.0
 40
0.5773502691896034
 41
3.141592653589811
 42
5.497787143782132
  0
ELLIPSE
  5
152
330
1F
100
AcDbEntity
  8
VISIBLE
100
AcDbEllipse
 10
12.37483858944745
 20
8.95198250886059
 30
0.0
 11
0.0400000000000027
 21
-0.06928203230275543
 31
0.0
210
0.0
220
0.0
230
1.0
 40
0.5773502691896321
 41
-3.141592653589859
 42
0.0
  0
ELLIPSE
  5
153
330
1F
100
AcDbEntity
  8
VISIBLE
100
AcDbEllipse
 10
12.3748385894542
 20
8.951982508831312
 30
0.0
 11
-0.04000000000366732
 21
0.06928203233381147
 31
0.0
210
0.0
220
0.0
230
1.0
 40
0.5773502691207149
 41
-0.7853981632788384
 42
0.0
  0
LINE
  5
154
330
1F
100
AcDbEntity
  8
VISIBLE
100
AcDbLine
 10
14.97699154421394
 20
5.87379039876307
 30
0.0
 11
14.97699154421394
 21
8.323280141546247
 31
0.0
  0
LINE
  5
155
330
1F
100
AcDbEntity
  8
VISIBLE
100
AcDbLine
 10
12.14856441946776
 20
9.956273303401693
 30
0.0
 11
11.79501102887448
 21
9.752149158169761
 31
0.0
  0
ELLIPSE
  5
156
330
1F
100
AcDbEntity
  8
VISIBLE
100
AcDbEllipse
 10
14.09310806773076
 20
6.588224907074823
 30
0.0
 11
-0.1330000000000027
 21
0.2303627574066613
 31
0.0
210
0.0
220
0.0
230
1.0
 40
0.5773502691896357
 41
3.141592653589793
 42
5.497787143782138
  0
ELLIPSE
  5
157
330
1F
100
AcDbEntity
  8
VISIBLE
100
AcDbEllipse
 10
14.09310806773076
 20
6.588224907074823
 30
0.0
 11
0.1330000000000009
 21
-0.2303627574066613
 31
0.0
210
0.0
220
0.0
230
1.0
 40
0.577350269189627
 41
-3.141592653589802
 42
0.0
  0
ELLIPSE
  5
158
330
1F
100
AcDbEntity
  8
VISIBLE
100
AcDbEllipse
 10
14.09310806773498
 20
6.588224907056418
 30
0.0
 11
-0.1330000000022799
 21
0.2303627574261888
 31
0.0
210
0.0
220
0.0
230
0.9999999999999998
 40
0.5773502691766293
 41
-0.7853981633748895
 42
0.0
  0
LINE
  5
159
330
1F
100
AcDbEntity
  8
VISIBLE
100
AcDbLine
 10
14.62343815362067
 20
5.669666253531141
 30
0.0
 11
11.79501102887448
 21
7.302659415386589
 31
0.0
  0
ELLIPSE
  5
15A
330
1F
100
AcDbEntity
  8
VISIBLE
100
AcDbEllipse
 10
13.03244789595094
 20
7.812969778466412
 30
0.0
 11
-0.3754999999999988
 21
0.6503850782421132
 31
0.0
210
0.0
220
0.0
230
0.9999999999999998
 40
0.5773502691896215
 41
3.141592653589793
 42
5.497787143782136
  0
ELLIPSE
  5
15B
330
1F
100
AcDbEntity
  8
VISIBLE
100
AcDbEllipse
 10
13.03244789595094
 20
7.812969778466412
 30
0.0
 11
0.3754999999999988
 21
-0.6503850782421114
 31
0.0
210
0.0
220
0.0
230
1.0
 40
0.5773502691896254
 41
-3.141592653589788
 42
0.0
  0
ELLIPSE
  5
15C
330
1F
100
AcDbEntity
  8
VISIBLE
100
AcDbEllipse
 10
13.03244789595162
 20
7.812969778463613
 30
0.0
 11
-0.3755000000003967
 21
0.6503850782450744
 31
0.0
210
0.0
220
0.0
230
1.0
 40
0.5773502691888964
 41
-0.7853981633963316
 42
0.0
  0
INSERT
  5
15E
330
1F
100
AcDbEntity
  8
CONTINUOUS
100
AcDbBlockReference
  2
BLOCK3
 10
0.0
 20
0.0
 30
0.0
  0
MTEXT
  5
1D4
330
1F
100
AcDbEntity
  8
CONTINUOUS
100
AcDbMText
 10
10.10847557248095
 20
0.8546100976898897
 30
0.0
 40
0.099537037037037
 41
0.0
 71
     1
 72
     1
  1
{\fArial|b0|i0|c0|p0;\C7;NEMA 23 MOTOR MOUNT}{\fArial|b0|i0|c0|p0;\C7;}
 73
     1
 44
1.0
  0
MTEXT
  5
1D5
330
1F
100
AcDbEntity
  8
CONTINUOUS
100
AcDbMText
 10
12.99653301088831
 20
1.016738486102248
 30
0.0
 40
0.099537037037037
 41
0.0
 71
     1
 72
     1
  1
{\fArial|b0|i0|c0|p0;\C7;CNC Router Parts}{\fArial|b0|i0|c0|p0;\C7;}
 73
     1
 44
1.0
  0
ENDSEC
  0
SECTION
  2
OBJECTS
  0
DICTIONARY
  5
C
330
0
100
AcDbDictionary
281
     1
  3
ACAD_GROUP
350
D
  3
ACAD_LAYOUT
350
1A
  3
ACAD_MLEADERSTYLE
350
1D9
  3
ACAD_MLINESTYLE
350
17
  3
ACAD_PLOTSETTINGS
350
19
  3
ACAD_PLOTSTYLENAME
350
E
  3
ACAD_SCALELIST
350
3B
  3
ACAD_TABLESTYLE
350
1D8
  3
ACAD_VISUALSTYLE
350
2A
  3
AcDbVariableDictionary
350
1D6
  0
DICTIONARY
  5
D
102
{ACAD_REACTORS
330
C
102
}
330
C
100
AcDbDictionary
281
     1
  0
DICTIONARY
  5
1A
102
{ACAD_REACTORS
330
C
102
}
330
C
100
AcDbDictionary
281
     1
  3
Layout1
350
1E
  3
Layout2
350
26
  3
Model
350
22
  0
DICTIONARY
  5
1D9
102
{ACAD_REACTORS
330
C
102
}
330
C
100
AcDbDictionary
281
     1
  0
DICTIONARY
  5
17
102
{ACAD_REACTORS
330
C
102
}
330
C
100
AcDbDictionary
281
     1
  3
Standard
350
18
  0
DICTIONARY
  5
19
102
{ACAD_REACTORS
330
C
102
}
330
C
100
AcDbDictionary
281
     1
  0
ACDBDICTIONARYWDFLT
  5
E
102
{ACAD_REACTORS
330
C
102
}
330
C
100
AcDbDictionary
281
     1
  3
Normal
350
F
100
AcDbDictionaryWithDefault
340
F
  0
DICTIONARY
  5
3B
102
{ACAD_REACTORS
330
C
102
}
330
C
100
AcDbDictionary
281
     1
  3
A0
350
3C
  3
A1
350
3D
  3
A2
350
3E
  3
A3
350
3F
  3
A4
350
40
  3
A5
350
41
  3
A6
350
42
  3
A7
350
43
  3
A8
350
44
  3
A9
350
45
  3
B0
350
46
  3
B1
350
47
  3
B2
350
48
  3
B3
350
49
  3
B4
350
4A
  3
B5
350
4B
  3
B6
350
4C
  3
B7
350
4D
  3
B8
350
4E
  3
B9
350
4F
  3
C0
350
50
  3
C1
350
51
  3
C2
350
52
  3
C3
350
53
  3
C4
350
54
  3
C5
350
55
  3
C6
350
56
  3
C7
350
57
  3
C8
350
58
  3
C9
350
59
  3
D0
350
5A
  3
D1
350
5B
  3
D2
350
5C
  0
DICTIONARY
  5
1D8
102
{ACAD_REACTORS
330
C
102
}
330
C
100
AcDbDictionary
281
     1
  0
DICTIONARY
  5
2A
102
{ACAD_REACTORS
330
C
102
}
330
C
100
AcDbDictionary
281
     1
  3
2dWireframe
350
2F
  3
3D Hidden
350
31
  3
3dWireframe
350
30
  3
Basic
350
32
  3
Brighten
350
36
  3
ColorChange
350
3A
  3
Conceptual
350
34
  3
Dim
350
35
  3
Facepattern
350
39
  3
Flat
350
2B
  3
FlatWithEdges
350
2C
  3
Gouraud
350
2D
  3
GouraudWithEdges
350
2E
  3
Linepattern
350
38
  3
Realistic
350
33
  3
Thicken
350
37
  0
DICTIONARY
  5
1D6
102
{ACAD_REACTORS
330
C
102
}
330
C
100
AcDbDictionary
281
     1
  3
CANNOSCALE
350
1D7
  0
LAYOUT
  5
1E
102
{ACAD_REACTORS
330
1A
102
}
330
1A
100
AcDbPlotSettings
  1

  2
none_device
  4

  6

 40
0.0
 41
0.0
 42
0.0
 43
0.0
 44
0.0
 45
0.0
 46
0.0
 47
0.0
 48
0.0
 49
0.0
140
0.0
141
0.0
142
1.0
143
1.0
 70
   688
 72
     0
 73
     0
 74
     5
  7

 75
    16
147
1.0
148
0.0
149
0.0
100
AcDbLayout
  1
Layout1
 70
     1
 71
     1
 10
0.0
 20
0.0
 11
12.0
 21
9.0
 12
0.0
 22
0.0
 32
0.0
 14
1.000000000000000E+20
 24
1.000000000000000E+20
 34
1.000000000000000E+20
 15
-1.000000000000000E+20
 25
-1.000000000000000E+20
 35
-1.000000000000000E+20
146
0.0
 13
0.0
 23
0.0
 33
0.0
 16
1.0
 26
0.0
 36
0.0
 17
0.0
 27
1.0
 37
0.0
 76
     0
330
1B
  0
LAYOUT
  5
26
102
{ACAD_REACTORS
330
1A
102
}
330
1A
100
AcDbPlotSettings
  1

  2
none_device
  4

  6

 40
0.0
 41
0.0
 42
0.0
 43
0.0
 44
0.0
 45
0.0
 46
0.0
 47
0.0
 48
0.0
 49
0.0
140
0.0
141
0.0
142
1.0
143
1.0
 70
   688
 72
     0
 73
     0
 74
     5
  7

 75
    16
147
1.0
148
0.0
149
0.0
100
AcDbLayout
  1
Layout2
 70
     1
 71
     2
 10
0.0
 20
0.0
 11
0.0
 21
0.0
 12
0.0
 22
0.0
 32
0.0
 14
0.0
 24
0.0
 34
0.0
 15
0.0
 25
0.0
 35
0.0
146
0.0
 13
0.0
 23
0.0
 33
0.0
 16
1.0
 26
0.0
 36
0.0
 17
0.0
 27
1.0
 37
0.0
 76
     0
330
23
  0
LAYOUT
  5
22
102
{ACAD_REACTORS
330
1A
102
}
330
1A
100
AcDbPlotSettings
  1

  2
none_device
  4

  6

 40
0.0
 41
0.0
 42
0.0
 43
0.0
 44
0.0
 45
0.0
 46
0.0
 47
0.0
 48
0.0
 49
0.0
140
0.0
141
0.0
142
1.0
143
1.0
 70
  1712
 72
     0
 73
     0
 74
     0
  7

 75
     0
147
1.0
148
0.0
149
0.0
100
AcDbLayout
  1
Model
 70
     1
 71
     0
 10
0.0
 20
0.0
 11
12.0
 21
9.0
 12
0.0
 22
0.0
 32
0.0
 14
1.000000000000000E+20
 24
1.000000000000000E+20
 34
1.000000000000000E+20
 15
-1.000000000000000E+20
 25
-1.000000000000000E+20
 35
-1.000000000000000E+20
146
0.0
 13
0.0
 23
0.0
 33
0.0
 16
1.0
 26
0.0
 36
0.0
 17
0.0
 27
1.0
 37
0.0
 76
     0
330
1F
331
29
  0
MLINESTYLE
  5
18
102
{ACAD_REACTORS
330
17
102
}
330
17
100
AcDbMlineStyle
  2
Standard
 70
     0
  3

 62
   256
 51
90.0
 52
90.0
 71
     2
 49
0.5
 62
   256
  6
BYLAYER
 49
-0.5
 62
   256
  6
BYLAYER
  0
ACDBPLACEHOLDER
  5
F
102
{ACAD_REACTORS
330
E
102
}
330
E
  0
SCALE
  5
3C
102
{ACAD_REACTORS
330
3B
102
}
330
3B
100
AcDbScale
 70
     0
300
1:1
140
1.0
141
1.0
290
     1
  0
SCALE
  5
3D
102
{ACAD_REACTORS
330
3B
102
}
330
3B
100
AcDbScale
 70
     0
300
1:2
140
1.0
141
2.0
290
     0
  0
SCALE
  5
3E
102
{ACAD_REACTORS
330
3B
102
}
330
3B
100
AcDbScale
 70
     0
300
1:4
140
1.0
141
4.0
290
     0
  0
SCALE
  5
3F
102
{ACAD_REACTORS
330
3B
102
}
330
3B
100
AcDbScale
 70
     0
300
1:5
140
1.0
141
5.0
290
     0
  0
SCALE
  5
40
102
{ACAD_REACTORS
330
3B
102
}
330
3B
100
AcDbScale
 70
     0
300
1:8
140
1.0
141
8.0
290
     0
  0
SCALE
  5
41
102
{ACAD_REACTORS
330
3B
102
}
330
3B
100
AcDbScale
 70
     0
300
1:10
140
1.0
141
10.0
290
     0
  0
SCALE
  5
42
102
{ACAD_REACTORS
330
3B
102
}
330
3B
100
AcDbScale
 70
     0
300
1:16
140
1.0
141
16.0
290
     0
  0
SCALE
  5
43
102
{ACAD_REACTORS
330
3B
102
}
330
3B
100
AcDbScale
 70
     0
300
1:20
140
1.0
141
20.0
290
     0
  0
SCALE
  5
44
102
{ACAD_REACTORS
330
3B
102
}
330
3B
100
AcDbScale
 70
     0
300
1:30
140
1.0
141
30.0
290
     0
  0
SCALE
  5
45
102
{ACAD_REACTORS
330
3B
102
}
330
3B
100
AcDbScale
 70
     0
300
1:40
140
1.0
141
40.0
290
     0
  0
SCALE
  5
46
102
{ACAD_REACTORS
330
3B
102
}
330
3B
100
AcDbScale
 70
     0
300
1:50
140
1.0
141
50.0
290
     0
  0
SCALE
  5
47
102
{ACAD_REACTORS
330
3B
102
}
330
3B
100
AcDbScale
 70
     0
300
1:100
140
1.0
141
100.0
290
     0
  0
SCALE
  5
48
102
{ACAD_REACTORS
330
3B
102
}
330
3B
100
AcDbScale
 70
     0
300
2:1
140
2.0
141
1.0
290
     0
  0
SCALE
  5
49
102
{ACAD_REACTORS
330
3B
102
}
330
3B
100
AcDbScale
 70
     0
300
4:1
140
4.0
141
1.0
290
     0
  0
SCALE
  5
4A
102
{ACAD_REACTORS
330
3B
102
}
330
3B
100
AcDbScale
 70
     0
300
8:1
140
8.0
141
1.0
290
     0
  0
SCALE
  5
4B
102
{ACAD_REACTORS
330
3B
102
}
330
3B
100
AcDbScale
 70
     0
300
10:1
140
10.0
141
1.0
290
     0
  0
SCALE
  5
4C
102
{ACAD_REACTORS
330
3B
102
}
330
3B
100
AcDbScale
 70
     0
300
100:1
140
100.0
141
1.0
290
     0
  0
SCALE
  5
4D
102
{ACAD_REACTORS
330
3B
102
}
330
3B
100
AcDbScale
 70
     0
300
1/128" = 1'-0"
140
0.0078125
141
12.0
290
     0
  0
SCALE
  5
4E
102
{ACAD_REACTORS
330
3B
102
}
330
3B
100
AcDbScale
 70
     0
300
1/64" = 1'-0"
140
0.015625
141
12.0
290
     0
  0
SCALE
  5
4F
102
{ACAD_REACTORS
330
3B
102
}
330
3B
100
AcDbScale
 70
     0
300
1/32" = 1'-0"
140
0.03125
141
12.0
290
     0
  0
SCALE
  5
50
102
{ACAD_REACTORS
330
3B
102
}
330
3B
100
AcDbScale
 70
     0
300
1/16" = 1'-0"
140
0.0625
141
12.0
290
     0
  0
SCALE
  5
51
102
{ACAD_REACTORS
330
3B
102
}
330
3B
100
AcDbScale
 70
     0
300
3/32" = 1'-0"
140
0.09375
141
12.0
290
     0
  0
SCALE
  5
52
102
{ACAD_REACTORS
330
3B
102
}
330
3B
100
AcDbScale
 70
     0
300
1/8" = 1'-0"
140
0.125
141
12.0
290
     0
  0
SCALE
  5
53
102
{ACAD_REACTORS
330
3B
102
}
330
3B
100
AcDbScale
 70
     0
300
3/16" = 1'-0"
140
0.1875
141
12.0
290
     0
  0
SCALE
  5
54
102
{ACAD_REACTORS
330
3B
102
}
330
3B
100
AcDbScale
 70
     0
300
1/4" = 1'-0"
140
0.25
141
12.0
290
     0
  0
SCALE
  5
55
102
{ACAD_REACTORS
330
3B
102
}
330
3B
100
AcDbScale
 70
     0
300
3/8" = 1'-0"
140
0.375
141
12.0
290
     0
  0
SCALE
  5
56
102
{ACAD_REACTORS
330
3B
102
}
330
3B
100
AcDbScale
 70
     0
300
1/2" = 1'-0"
140
0.5
141
12.0
290
     0
  0
SCALE
  5
57
102
{ACAD_REACTORS
330
3B
102
}
330
3B
100
AcDbScale
 70
     0
300
3/4" = 1'-0"
140
0.75
141
12.0
290
     0
  0
SCALE
  5
58
102
{ACAD_REACTORS
330
3B
102
}
330
3B
100
AcDbScale
 70
     0
300
1" = 1'-0"
140
1.0
141
12.0
290
     0
  0
SCALE
  5
59
102
{ACAD_REACTORS
330
3B
102
}
330
3B
100
AcDbScale
 70
     0
300
1-1/2" = 1'-0"
140
1.5
141
12.0
290
     0
  0
SCALE
  5
5A
102
{ACAD_REACTORS
330
3B
102
}
330
3B
100
AcDbScale
 70
     0
300
3" = 1'-0"
140
3.0
141
12.0
290
     0
  0
SCALE
  5
5B
102
{ACAD_REACTORS
330
3B
102
}
330
3B
100
AcDbScale
 70
     0
300
6" = 1'-0"
140
6.0
141
12.0
290
     0
  0
SCALE
  5
5C
102
{ACAD_REACTORS
330
3B
102
}
330
3B
100
AcDbScale
 70
     0
300
1'-0" = 1'-0"
140
12.0
141
12.0
290
     0
  0
VISUALSTYLE
  5
2F
102
{ACAD_REACTORS
330
2A
102
}
330
2A
100
AcDbVisualStyle
  2
2dWireframe
 70
     4
 71
     0
 72
     2
 73
     0
 90
        0
 40
-0.6
 41
-30.0
 62
     5
 63
     7
 74
     1
 91
        4
 64
     7
 65
   257
 75
     1
175
     1
 42
1.0
 92
        0
 66
   257
 43
1.0
 76
     1
 77
     6
 78
     2
 67
     7
 79
     5
170
     0
171
     0
290
     0
174
     0
 93
        1
 44
0.0
173
     0
291
     0
 45
0.0
1001
ACAD
1000
AcDbSavedByObjectVersion
1070
     0
  0
VISUALSTYLE
  5
31
102
{ACAD_REACTORS
330
2A
102
}
330
2A
100
AcDbVisualStyle
  2
3D Hidden
 70
     6
 71
     1
 72
     2
 73
     2
 90
        0
 40
-0.6
 41
-30.0
 62
     5
 63
     7
 74
     2
 91
        2
 64
     7
 65
   257
 75
     2
175
     1
 42
40.0
 92
        0
 66
   257
 43
1.0
 76
     1
 77
     6
 78
     2
 67
     7
 79
     3
170
     0
171
     0
290
     0
174
     0
 93
        1
 44
0.0
173
     0
291
     0
 45
0.0
1001
ACAD
1000
AcDbSavedByObjectVersion
1070
     0
  0
VISUALSTYLE
  5
30
102
{ACAD_REACTORS
330
2A
102
}
330
2A
100
AcDbVisualStyle
  2
3dWireframe
 70
     5
 71
     0
 72
     2
 73
     0
 90
        0
 40
-0.6
 41
-30.0
 62
     5
 63
     7
 74
     1
 91
        4
 64
     7
 65
   257
 75
     1
175
     1
 42
1.0
 92
        0
 66
   257
 43
1.0
 76
     1
 77
     6
 78
     2
 67
     7
 79
     5
170
     0
171
     0
290
     0
174
     0
 93
        1
 44
0.0
173
     0
291
     0
 45
0.0
1001
ACAD
1000
AcDbSavedByObjectVersion
1070
     0
  0
VISUALSTYLE
  5
32
102
{ACAD_REACTORS
330
2A
102
}
330
2A
100
AcDbVisualStyle
  2
Basic
 70
     7
 71
     1
 72
     0
 73
     1
 90
        0
 40
-0.6
 41
-30.0
 62
     5
 63
     7
 74
     0
 91
        4
 64
     7
 65
   257
 75
     1
175
     1
 42
1.0
 92
        8
 66
     7
 43
1.0
 76
     1
 77
     6
 78
     2
 67
     7
 79
     5
170
     0
171
     0
290
     0
174
     0
 93
        1
 44
0.0
173
     0
291
     1
 45
0.0
1001
ACAD
1000
AcDbSavedByObjectVersion
1070
     0
  0
VISUALSTYLE
  5
36
102
{ACAD_REACTORS
330
2A
102
}
330
2A
100
AcDbVisualStyle
  2
Brighten
 70
    12
 71
     2
 72
     2
 73
     0
 90
        0
 40
-0.6
 41
-30.0
 62
     5
 63
     7
 74
     1
 91
        4
 64
     7
 65
   257
 75
     1
175
     1
 42
1.0
 92
        8
 66
     7
 43
1.0
 76
     1
 77
     6
 78
     2
 67
     7
 79
     5
170
     0
171
     0
290
     0
174
     0
 93
        1
 44
50.0
173
     0
291
     1
 45
0.0
1001
ACAD
1000
AcDbSavedByObjectVersion
1070
     0
  0
VISUALSTYLE
  5
3A
102
{ACAD_REACTORS
330
2A
102
}
330
2A
100
AcDbVisualStyle
  2
ColorChange
 70
    16
 71
     2
 72
     2
 73
     3
 90
        0
 40
-0.6
 41
-30.0
 62
     5
 63
     8
 74
     1
 91
        4
 64
     7
 65
   257
 75
     1
175
     1
 42
1.0
 92
        8
 66
     8
 43
1.0
 76
     1
 77
     6
 78
     2
 67
     7
 79
     5
170
     0
171
     0
290
     0
174
     0
 93
        1
 44
0.0
173
     0
291
     1
 45
0.0
1001
ACAD
1000
AcDbSavedByObjectVersion
1070
     0
  0
VISUALSTYLE
  5
34
102
{ACAD_REACTORS
330
2A
102
}
330
2A
100
AcDbVisualStyle
  2
Conceptual
 70
     9
 71
     3
 72
     2
 73
     0
 90
        0
 40
-0.6
 41
-30.0
 62
     5
 63
     7
 74
     2
 91
        2
 64
     7
 65
   257
 75
     1
175
     1
 42
40.0
 92
        8
 66
     7
 43
1.0
 76
     1
 77
     6
 78
     2
 67
     7
 79
     3
170
     0
171
     0
290
     0
174
     0
 93
        1
 44
0.0
173
     0
291
     0
 45
0.0
1001
ACAD
1000
AcDbSavedByObjectVersion
1070
     0
  0
VISUALSTYLE
  5
35
102
{ACAD_REACTORS
330
2A
102
}
330
2A
100
AcDbVisualStyle
  2
Dim
 70
    11
 71
     2
 72
     2
 73
     0
 90
        0
 40
-0.6
 41
-30.0
 62
     5
 63
     7
 74
     1
 91
        4
 64
     7
 65
   257
 75
     1
175
     1
 42
1.0
 92
        8
 66
     7
 43
1.0
 76
     1
 77
     6
 78
     2
 67
     7
 79
     5
170
     0
171
     0
290
     0
174
     0
 93
        1
 44
-50.0
173
     0
291
     1
 45
0.0
1001
ACAD
1000
AcDbSavedByObjectVersion
1070
     0
  0
VISUALSTYLE
  5
39
102
{ACAD_REACTORS
330
2A
102
}
330
2A
100
AcDbVisualStyle
  2
Facepattern
 70
    15
 71
     2
 72
     2
 73
     0
 90
        0
 40
-0.6
 41
-30.0
 62
     5
 63
     7
 74
     1
 91
        4
 64
     7
 65
   257
 75
     1
175
     1
 42
1.0
 92
        8
 66
     7
 43
1.0
 76
     1
 77
     6
 78
     2
 67
     7
 79
     5
170
     0
171
     0
290
     0
174
     0
 93
        1
 44
0.0
173
     0
291
     1
 45
0.0
1001
ACAD
1000
AcDbSavedByObjectVersion
1070
     0
  0
VISUALSTYLE
  5
2B
102
{ACAD_REACTORS
330
2A
102
}
330
2A
100
AcDbVisualStyle
  2
Flat
 70
     0
 71
     2
 72
     1
 73
     1
 90
        2
 40
-0.6
 41
30.0
 62
     5
 63
     7
 74
     0
 91
        4
 64
     7
 65
   257
 75
     1
175
     1
 42
1.0
 92
        8
 66
     7
 43
1.0
 76
     1
 77
     6
 78
     2
 67
     7
 79
     5
170
     0
171
     0
290
     0
174
     0
 93
       13
 44
0.0
173
     0
291
     1
 45
0.0
1001
ACAD
1000
AcDbSavedByObjectVersion
1070
     0
  0
VISUALSTYLE
  5
2C
102
{ACAD_REACTORS
330
2A
102
}
330
2A
100
AcDbVisualStyle
  2
FlatWithEdges
 70
     1
 71
     2
 72
     1
 73
     1
 90
        2
 40
-0.6
 41
30.0
 62
     5
 63
     7
 74
     1
 91
        4
 64
     7
 65
   257
 75
     1
175
     1
 42
1.0
 92
        0
 66
   257
 43
1.0
 76
     1
 77
     6
 78
     2
 67
     7
 79
     5
170
     0
171
     0
290
     0
174
     0
 93
       13
 44
0.0
173
     0
291
     1
 45
0.0
1001
ACAD
1000
AcDbSavedByObjectVersion
1070
     0
  0
VISUALSTYLE
  5
2D
102
{ACAD_REACTORS
330
2A
102
}
330
2A
100
AcDbVisualStyle
  2
Gouraud
 70
     2
 71
     2
 72
     2
 73
     1
 90
        2
 40
-0.6
 41
30.0
 62
     5
 63
     7
 74
     0
 91
        4
 64
     7
 65
   257
 75
     1
175
     1
 42
1.0
 92
        0
 66
     7
 43
1.0
 76
     1
 77
     6
 78
     2
 67
     7
 79
     5
170
     0
171
     0
290
     0
174
     0
 93
       13
 44
0.0
173
     0
291
     1
 45
0.0
1001
ACAD
1000
AcDbSavedByObjectVersion
1070
     0
  0
VISUALSTYLE
  5
2E
102
{ACAD_REACTORS
330
2A
102
}
330
2A
100
AcDbVisualStyle
  2
GouraudWithEdges
 70
     3
 71
     2
 72
     2
 73
     1
 90
        2
 40
-0.6
 41
30.0
 62
     5
 63
     7
 74
     1
 91
        4
 64
     7
 65
   257
 75
     1
175
     1
 42
1.0
 92
        0
 66
   257
 43
1.0
 76
     1
 77
     6
 78
     2
 67
     7
 79
     5
170
     0
171
     0
290
     0
174
     0
 93
       13
 44
0.0
173
     0
291
     1
 45
0.0
1001
ACAD
1000
AcDbSavedByObjectVersion
1070
     0
  0
VISUALSTYLE
  5
38
102
{ACAD_REACTORS
330
2A
102
}
330
2A
100
AcDbVisualStyle
  2
Linepattern
 70
    14
 71
     2
 72
     2
 73
     0
 90
        0
 40
-0.6
 41
-30.0
 62
     5
 63
     7
 74
     1
 91
        4
 64
     7
 65
   257
 75
     7
175
     7
 42
1.0
 92
        8
 66
     7
 43
1.0
 76
     1
 77
     6
 78
     2
 67
     7
 79
     5
170
     0
171
     0
290
     0
174
     0
 93
        1
 44
0.0
173
     0
291
     1
 45
0.0
1001
ACAD
1000
AcDbSavedByObjectVersion
1070
     0
  0
VISUALSTYLE
  5
33
102
{ACAD_REACTORS
330
2A
102
}
330
2A
100
AcDbVisualStyle
  2
Realistic
 70
     8
 71
     2
 72
     2
 73
     0
 90
        0
 40
-0.6
 41
-30.0
 62
     5
 63
     7
 74
     1
 91
        0
 64
     7
 65
   257
 75
     1
175
     1
 42
1.0
 92
        8
 66
     8
 43
1.0
 76
     1
 77
     6
 78
     2
 67
     7
 79
     5
170
     0
171
     0
290
     0
174
     0
 93
       13
 44
0.0
173
     0
291
     0
 45
0.0
1001
ACAD
1000
AcDbSavedByObjectVersion
1070
     0
  0
VISUALSTYLE
  5
37
102
{ACAD_REACTORS
330
2A
102
}
330
2A
100
AcDbVisualStyle
  2
Thicken
 70
    13
 71
     2
 72
     2
 73
     0
 90
        0
 40
-0.6
 41
-30.0
 62
     5
 63
     7
 74
     1
 91
        4
 64
     7
 65
   257
 75
     1
175
     1
 42
1.0
 92
       12
 66
     7
 43
1.0
 76
     1
 77
     6
 78
     2
 67
     7
 79
     5
170
     0
171
     0
290
     0
174
     0
 93
        1
 44
0.0
173
     0
291
     1
 45
0.0
1001
ACAD
1000
AcDbSavedByObjectVersion
1070
     0
  0
DICTIONARYVAR
  5
1D7
102
{ACAD_REACTORS
330
1D6
102
}
330
1D6
100
DictionaryVariables
280
     0
  1
1:1
  0
ENDSEC
  0
EOF
