  0
SECTION
  2
HEADER
  9
$ACADVER
  1
AC1015
  9
$ACADMAINTVER
 70
     6
  9
$DWGCODEPAGE
  3
ANSI_1252
  9
$INSBASE
 10
0.0
 20
0.0
 30
0.0
  9
$EXTMIN
 10
1.000000000000000E+20
 20
1.000000000000000E+20
 30
1.000000000000000E+20
  9
$EXTMAX
 10
-1.000000000000000E+20
 20
-1.000000000000000E+20
 30
-1.000000000000000E+20
  9
$LIMMIN
 10
0.0
 20
0.0
  9
$LIMMAX
 10
12.0
 20
9.0
  9
$ORTHOMODE
 70
     0
  9
$REGENMODE
 70
     1
  9
$FILLMODE
 70
     1
  9
$QTEXTMODE
 70
     0
  9
$MIRRTEXT
 70
     1
  9
$LTSCALE
 40
1.0
  9
$ATTMODE
 70
     1
  9
$TEXTSIZE
 40
0.2
  9
$TRACEWID
 40
0.05
  9
$TEXTSTYLE
  7
Standard
  9
$CLAYER
  8
0
  9
$CELTYPE
  6
ByLayer
  9
$CECOLOR
 62
   256
  9
$CELTSCALE
 40
1.0
  9
$DISPSILH
 70
     0
  9
$DIMSCALE
 40
1.0
  9
$DIMASZ
 40
0.1181102362204725
  9
$DIMEXO
 40
0.0625
  9
$DIMDLI
 40
0.38
  9
$DIMRND
 40
0.0
  9
$DIMDLE
 40
0.0
  9
$DIMEXE
 40
0.18
  9
$DIMTP
 40
0.0
  9
$DIMTM
 40
0.0
  9
$DIMTXT
 40
0.0895833333333333
  9
$DIMCEN
 40
0.09
  9
$DIMTSZ
 40
0.0
  9
$DIMTOL
 70
     0
  9
$DIMLIM
 70
     0
  9
$DIMTIH
 70
     1
  9
$DIMTOH
 70
     1
  9
$DIMSE1
 70
     0
  9
$DIMSE2
 70
     0
  9
$DIMTAD
 70
     0
  9
$DIMZIN
 70
     0
  9
$DIMBLK
  1

  9
$DIMASO
 70
     1
  9
$DIMSHO
 70
     1
  9
$DIMPOST
  1

  9
$DIMAPOST
  1

  9
$DIMALT
 70
     0
  9
$DIMALTD
 70
     2
  9
$DIMALTF
 40
25.4
  9
$DIMLFAC
 40
1.0
  9
$DIMTOFL
 70
     0
  9
$DIMTVP
 40
0.0
  9
$DIMTIX
 70
     0
  9
$DIMSOXD
 70
     0
  9
$DIMSAH
 70
     0
  9
$DIMBLK1
  1

  9
$DIMBLK2
  1

  9
$DIMSTYLE
  2
Standard
  9
$DIMCLRD
 70
     0
  9
$DIMCLRE
 70
     0
  9
$DIMCLRT
 70
     0
  9
$DIMTFAC
 40
1.0
  9
$DIMGAP
 40
0.09
  9
$DIMJUST
 70
     0
  9
$DIMSD1
 70
     0
  9
$DIMSD2
 70
     0
  9
$DIMTOLJ
 70
     1
  9
$DIMTZIN
 70
     0
  9
$DIMALTZ
 70
     0
  9
$DIMALTTZ
 70
     0
  9
$DIMUPT
 70
     0
  9
$DIMDEC
 70
     4
  9
$DIMTDEC
 70
     4
  9
$DIMALTU
 70
     2
  9
$DIMALTTD
 70
     2
  9
$DIMTXSTY
  7
Standard
  9
$DIMAUNIT
 70
     0
  9
$DIMADEC
 70
     0
  9
$DIMALTRND
 40
0.0
  9
$DIMAZIN
 70
     0
  9
$DIMDSEP
 70
    46
  9
$DIMATFIT
 70
     3
  9
$DIMFRAC
 70
     0
  9
$DIMLDRBLK
  1

  9
$DIMLUNIT
 70
     2
  9
$DIMLWD
 70
    -2
  9
$DIMLWE
 70
    -2
  9
$DIMTMOVE
 70
     0
  9
$LUNITS
 70
     2
  9
$LUPREC
 70
     4
  9
$SKETCHINC
 40
0.1
  9
$FILLETRAD
 40
0.5
  9
$AUNITS
 70
     0
  9
$AUPREC
 70
     0
  9
$MENU
  1
.
  9
$ELEVATION
 40
0.0
  9
$PELEVATION
 40
0.0
  9
$THICKNESS
 40
0.0
  9
$LIMCHECK
 70
     0
  9
$CHAMFERA
 40
0.5
  9
$CHAMFERB
 40
0.5
  9
$CHAMFERC
 40
1.0
  9
$CHAMFERD
 40
0.0
  9
$SKPOLY
 70
     0
  9
$TDCREATE
 40
2455071.437538333
  9
$TDUCREATE
 40
2455071.729205
  9
$TDUPDATE
 40
2455071.437538345
  9
$TDUUPDATE
 40
2455071.729205011
  9
$TDINDWG
 40
0.0000000116
  9
$TDUSRTIMER
 40
0.0000000116
  9
$USRTIMER
 70
     1
  9
$ANGBASE
 50
0.0
  9
$ANGDIR
 70
     0
  9
$PDMODE
 70
     0
  9
$PDSIZE
 40
0.0
  9
$PLINEWID
 40
0.0
  9
$SPLFRAME
 70
     0
  9
$SPLINETYPE
 70
     6
  9
$SPLINESEGS
 70
     8
  9
$HANDSEED
  5
1D3
  9
$SURFTAB1
 70
     6
  9
$SURFTAB2
 70
     6
  9
$SURFTYPE
 70
     6
  9
$SURFU
 70
     6
  9
$SURFV
 70
     6
  9
$UCSBASE
  2

  9
$UCSNAME
  2

  9
$UCSORG
 10
0.0
 20
0.0
 30
0.0
  9
$UCSXDIR
 10
1.0
 20
0.0
 30
0.0
  9
$UCSYDIR
 10
0.0
 20
1.0
 30
0.0
  9
$UCSORTHOREF
  2

  9
$UCSORTHOVIEW
 70
     0
  9
$UCSORGTOP
 10
0.0
 20
0.0
 30
0.0
  9
$UCSORGBOTTOM
 10
0.0
 20
0.0
 30
0.0
  9
$UCSORGLEFT
 10
0.0
 20
0.0
 30
0.0
  9
$UCSORGRIGHT
 10
0.0
 20
0.0
 30
0.0
  9
$UCSORGFRONT
 10
0.0
 20
0.0
 30
0.0
  9
$UCSORGBACK
 10
0.0
 20
0.0
 30
0.0
  9
$PUCSBASE
  2

  9
$PUCSNAME
  2

  9
$PUCSORG
 10
0.0
 20
0.0
 30
0.0
  9
$PUCSXDIR
 10
1.0
 20
0.0
 30
0.0
  9
$PUCSYDIR
 10
0.0
 20
1.0
 30
0.0
  9
$PUCSORTHOREF
  2

  9
$PUCSORTHOVIEW
 70
     0
  9
$PUCSORGTOP
 10
0.0
 20
0.0
 30
0.0
  9
$PUCSORGBOTTOM
 10
0.0
 20
0.0
 30
0.0
  9
$PUCSORGLEFT
 10
0.0
 20
0.0
 30
0.0
  9
$PUCSORGRIGHT
 10
0.0
 20
0.0
 30
0.0
  9
$PUCSORGFRONT
 10
0.0
 20
0.0
 30
0.0
  9
$PUCSORGBACK
 10
0.0
 20
0.0
 30
0.0
  9
$USERI1
 70
     0
  9
$USERI2
 70
     0
  9
$USERI3
 70
     0
  9
$USERI4
 70
     0
  9
$USERI5
 70
     0
  9
$USERR1
 40
0.0
  9
$USERR2
 40
0.0
  9
$USERR3
 40
0.0
  9
$USERR4
 40
0.0
  9
$USERR5
 40
0.0
  9
$WORLDVIEW
 70
     1
  9
$SHADEDGE
 70
     3
  9
$SHADEDIF
 70
    70
  9
$TILEMODE
 70
     1
  9
$MAXACTVP
 70
    64
  9
$PINSBASE
 10
0.0
 20
0.0
 30
0.0
  9
$PLIMCHECK
 70
     0
  9
$PEXTMIN
 10
1.000000000000000E+20
 20
1.000000000000000E+20
 30
1.000000000000000E+20
  9
$PEXTMAX
 10
-1.000000000000000E+20
 20
-1.000000000000000E+20
 30
-1.000000000000000E+20
  9
$PLIMMIN
 10
0.0
 20
0.0
  9
$PLIMMAX
 10
12.0
 20
9.0
  9
$UNITMODE
 70
     0
  9
$VISRETAIN
 70
     1
  9
$PLINEGEN
 70
     0
  9
$PSLTSCALE
 70
     1
  9
$TREEDEPTH
 70
  3020
  9
$CMLSTYLE
  2
Standard
  9
$CMLJUST
 70
     0
  9
$CMLSCALE
 40
1.0
  9
$PROXYGRAPHICS
 70
     1
  9
$MEASUREMENT
 70
     0
  9
$CELWEIGHT
370
    -1
  9
$ENDCAPS
280
     0
  9
$JOINSTYLE
280
     0
  9
$LWDISPLAY
290
     0
  9
$INSUNITS
 70
     1
  9
$HYPERLINKBASE
  1

  9
$STYLESHEET
  1

  9
$XEDIT
290
     1
  9
$CEPSNTYPE
380
     0
  9
$PSTYLEMODE
290
     1
  9
$FINGERPRINTGUID
  2
{86E6CF29-DDFB-4058-8846-1F9229EC16E5}
  9
$VERSIONGUID
  2
{FAEB1C32-E019-11D5-929B-00C0DF256EC4}
  9
$EXTNAMES
290
     1
  9
$PSVPSCALE
 40
0.0
  9
$OLESTARTUP
290
     0
  0
ENDSEC
  0
SECTION
  2
CLASSES
  0
CLASS
  1
ACDBDICTIONARYWDFLT
  2
AcDbDictionaryWithDefault
  3
ObjectDBX Classes
 90
        0
280
     0
281
     0
  0
CLASS
  1
VISUALSTYLE
  2
AcDbVisualStyle
  3
ObjectDBX Classes
 90
     4095
280
     0
281
     0
  0
CLASS
  1
SCALE
  2
AcDbScale
  3
ObjectDBX Classes
 90
     1153
280
     0
281
     0
  0
CLASS
  1
DICTIONARYVAR
  2
AcDbDictionaryVar
  3
ObjectDBX Classes
 90
        0
280
     0
281
     0
  0
CLASS
  1
ACDBPLACEHOLDER
  2
AcDbPlaceHolder
  3
ObjectDBX Classes
 90
        0
280
     0
281
     0
  0
CLASS
  1
LAYOUT
  2
AcDbLayout
  3
ObjectDBX Classes
 90
        0
280
     0
281
     0
  0
ENDSEC
  0
SECTION
  2
TABLES
  0
TABLE
  2
VPORT
  5
8
330
0
100
AcDbSymbolTable
 70
     1
  0
VPORT
  5
29
330
8
100
AcDbSymbolTableRecord
100
AcDbViewportTableRecord
  2
*Active
 70
     0
 10
0.0
 20
0.0
 11
1.0
 21
1.0
 12
10.42990654205607
 22
4.5
 13
0.0
 23
0.0
 14
0.5
 24
0.5
 15
0.5
 25
0.5
 16
0.0
 26
0.0
 36
1.0
 17
0.0
 27
0.0
 37
0.0
 40
9.0
 41
1.972972972850329
 42
50.0
 43
0.0
 44
0.0
 50
0.0
 51
0.0
 71
     0
 72
   100
 73
     1
 74
     3
 75
     0
 76
     0
 77
     0
 78
     0
281
     0
 65
     1
110
0.0
120
0.0
130
0.0
111
1.0
121
0.0
131
0.0
112
0.0
122
1.0
132
0.0
 79
     0
146
0.0
  0
ENDTAB
  0
TABLE
  2
LTYPE
  5
5
330
0
100
AcDbSymbolTable
 70
     1
  0
LTYPE
  5
14
330
5
100
AcDbSymbolTableRecord
100
AcDbLinetypeTableRecord
  2
ByBlock
 70
     0
  3

 72
    65
 73
     0
 40
0.0
  0
LTYPE
  5
15
330
5
100
AcDbSymbolTableRecord
100
AcDbLinetypeTableRecord
  2
ByLayer
 70
     0
  3

 72
    65
 73
     0
 40
0.0
  0
LTYPE
  5
16
330
5
100
AcDbSymbolTableRecord
100
AcDbLinetypeTableRecord
  2
Continuous
 70
     0
  3
Solid line
 72
    65
 73
     0
 40
0.0
  0
ENDTAB
  0
TABLE
  2
LAYER
  5
2
330
0
100
AcDbSymbolTable
 70
     4
  0
LAYER
  5
10
330
2
100
AcDbSymbolTableRecord
100
AcDbLayerTableRecord
  2
0
 70
     0
 62
     7
  6
Continuous
370
    -3
390
F
  0
LAYER
  5
5D
330
2
100
AcDbSymbolTableRecord
100
AcDbLayerTableRecord
  2
VISIBLE
 70
     0
 62
     7
  6
Continuous
370
     0
390
F
  0
LAYER
  5
68
330
2
100
AcDbSymbolTableRecord
100
AcDbLayerTableRecord
  2
DIMENSIONS
 70
     0
 62
     7
  6
Continuous
370
     0
390
F
  0
LAYER
  5
156
330
2
100
AcDbSymbolTableRecord
100
AcDbLayerTableRecord
  2
CONTINUOUS
 70
     0
 62
     7
  6
Continuous
370
     0
390
F
  0
ENDTAB
  0
TABLE
  2
STYLE
  5
3
330
0
100
AcDbSymbolTable
 70
     1
  0
STYLE
  5
11
330
3
100
AcDbSymbolTableRecord
100
AcDbTextStyleTableRecord
  2
Standard
 70
     0
 40
0.125
 41
1.0
 50
0.0
 71
     0
 42
0.2
  3
txt
  4

1001
ACAD
1000
Arial
1071
        0
  0
ENDTAB
  0
TABLE
  2
VIEW
  5
6
330
0
100
AcDbSymbolTable
 70
     0
  0
ENDTAB
  0
TABLE
  2
UCS
  5
7
330
0
100
AcDbSymbolTable
 70
     0
  0
ENDTAB
  0
TABLE
  2
APPID
  5
9
330
0
100
AcDbSymbolTable
 70
     1
  0
APPID
  5
12
330
9
100
AcDbSymbolTableRecord
100
AcDbRegAppTableRecord
  2
ACAD
 70
     0
  0
ENDTAB
  0
TABLE
  2
DIMSTYLE
  5
A
330
0
100
AcDbSymbolTable
 70
     1
100
AcDbDimStyleTable
  0
DIMSTYLE
105
27
102
{ACAD_REACTORS
330
69
330
77
330
85
330
93
330
A1
330
AF
330
BD
330
D3
330
E1
330
11E
330
12C
330
13A
330
148
102
}
330
A
100
AcDbSymbolTableRecord
100
AcDbDimStyleTableRecord
  2
Standard
 70
     0
340
11
  0
ENDTAB
  0
TABLE
  2
BLOCK_RECORD
  5
1
330
0
100
AcDbSymbolTable
 70
    15
  0
BLOCK_RECORD
  5
1F
330
1
100
AcDbSymbolTableRecord
100
AcDbBlockTableRecord
  2
*Model_Space
340
22
  0
BLOCK_RECORD
  5
1B
330
1
100
AcDbSymbolTableRecord
100
AcDbBlockTableRecord
  2
*Paper_Space
340
1E
  0
BLOCK_RECORD
  5
23
330
1
100
AcDbSymbolTableRecord
100
AcDbBlockTableRecord
  2
*Paper_Space0
340
26
  0
BLOCK_RECORD
  5
6A
330
1
100
AcDbSymbolTableRecord
100
AcDbBlockTableRecord
  2
D1
340
0
  0
BLOCK_RECORD
  5
78
330
1
100
AcDbSymbolTableRecord
100
AcDbBlockTableRecord
  2
D2
340
0
  0
BLOCK_RECORD
  5
86
330
1
100
AcDbSymbolTableRecord
100
AcDbBlockTableRecord
  2
D3
340
0
  0
BLOCK_RECORD
  5
94
330
1
100
AcDbSymbolTableRecord
100
AcDbBlockTableRecord
  2
D4
340
0
  0
BLOCK_RECORD
  5
A2
330
1
100
AcDbSymbolTableRecord
100
AcDbBlockTableRecord
  2
D5
340
0
  0
BLOCK_RECORD
  5
B0
330
1
100
AcDbSymbolTableRecord
100
AcDbBlockTableRecord
  2
D6
340
0
  0
BLOCK_RECORD
  5
BE
330
1
100
AcDbSymbolTableRecord
100
AcDbBlockTableRecord
  2
D7
340
0
  0
BLOCK_RECORD
  5
D4
330
1
100
AcDbSymbolTableRecord
100
AcDbBlockTableRecord
  2
D8
340
0
  0
BLOCK_RECORD
  5
E2
330
1
100
AcDbSymbolTableRecord
100
AcDbBlockTableRecord
  2
D9
340
0
  0
BLOCK_RECORD
  5
11F
330
1
100
AcDbSymbolTableRecord
100
AcDbBlockTableRecord
  2
D10
340
0
  0
BLOCK_RECORD
  5
12D
330
1
100
AcDbSymbolTableRecord
100
AcDbBlockTableRecord
  2
D11
340
0
  0
BLOCK_RECORD
  5
13B
330
1
100
AcDbSymbolTableRecord
100
AcDbBlockTableRecord
  2
D12
340
0
  0
BLOCK_RECORD
  5
149
330
1
100
AcDbSymbolTableRecord
100
AcDbBlockTableRecord
  2
D13
340
0
  0
BLOCK_RECORD
  5
158
330
1
100
AcDbSymbolTableRecord
100
AcDbBlockTableRecord
  2
BLOCK1
340
0
102
{BLKREFS
331
157
102
}
  0
ENDTAB
  0
ENDSEC
  0
SECTION
  2
BLOCKS
  0
BLOCK
  5
20
330
1F
100
AcDbEntity
  8
0
100
AcDbBlockBegin
  2
*Model_Space
 70
     0
 10
0.0
 20
0.0
 30
0.0
  3
*Model_Space
  1

  0
ENDBLK
  5
21
330
1F
100
AcDbEntity
  8
0
100
AcDbBlockEnd
  0
BLOCK
  5
1C
330
1B
100
AcDbEntity
 67
     1
  8
0
100
AcDbBlockBegin
  2
*Paper_Space
 70
     0
 10
0.0
 20
0.0
 30
0.0
  3
*Paper_Space
  1

  0
ENDBLK
  5
1D
330
1B
100
AcDbEntity
 67
     1
  8
0
100
AcDbBlockEnd
  0
BLOCK
  5
24
330
23
100
AcDbEntity
  8
0
100
AcDbBlockBegin
  2
*Paper_Space0
 70
     0
 10
0.0
 20
0.0
 30
0.0
  3
*Paper_Space0
  1

  0
ENDBLK
  5
25
330
23
100
AcDbEntity
  8
0
100
AcDbBlockEnd
  0
BLOCK
  5
6B
330
6A
100
AcDbEntity
  8
0
100
AcDbBlockBegin
  2
D1
 70
     0
 10
0.0
 20
0.0
 30
0.0
  3
D1
  1

  0
MTEXT
  5
6D
330
6A
100
AcDbEntity
  8
DIMENSIONS
100
AcDbMText
 10
7.579452034056654
 20
7.448574636864839
 30
0.0
 40
0.0895833333333333
 41
0.0
 71
     5
 72
     1
  1
{\fArial|b0|i0|c0|p0;3.000 "}{\fMS Shell Dlg|b0|i0|c0|p0;\H0.9444444x;}
 73
     1
 44
1.0
  0
MTEXT
  5
6E
330
6A
100
AcDbEntity
  8
DIMENSIONS
100
AcDbMText
 10
7.579452034056654
 20
7.448574636864839
 30
0.0
 40
0.0895833333333333
 41
0.0
 71
     5
 72
     1
  1
{\fArial|b0|i0|c0|p0;}
 73
     1
 44
1.0
  0
MTEXT
  5
6F
330
6A
100
AcDbEntity
  8
DIMENSIONS
100
AcDbMText
 10
7.579452034056654
 20
7.448574636864839
 30
0.0
 40
0.0895833333333333
 41
0.0
 71
     5
 72
     1
  1
{\fArial|b0|i0|c0|p0;}
 73
     1
 44
1.0
  0
LINE
  5
70
330
6A
100
AcDbEntity
  8
DIMENSIONS
100
AcDbLine
 10
6.079452034056654
 20
6.639750202809724
 30
0.0
 11
6.079452034056654
 21
7.464814794345154
 31
0.0
  0
LINE
  5
71
330
6A
100
AcDbEntity
  8
DIMENSIONS
100
AcDbLine
 10
9.079452034056654
 20
6.639750202809724
 30
0.0
 11
9.079452034056654
 21
7.464814794345154
 31
0.0
  0
LWPOLYLINE
  5
72
330
6A
100
AcDbEntity
  8
DIMENSIONS
100
AcDbPolyline
 90
        4
 70
     0
 43
0.0
 10
6.079452034056654
 20
7.386074636864838
 10
6.197562270277126
 20
7.405759676234917
 10
6.197562270277126
 20
7.366389597494759
 10
6.079452034056654
 20
7.386074636864838
  0
LINE
  5
73
330
6A
100
AcDbEntity
  8
DIMENSIONS
100
AcDbLine
 10
6.197562270277126
 20
7.386074636864838
 30
0.0
 11
7.579452034056654
 21
7.386074636864838
 31
0.0
  0
LWPOLYLINE
  5
74
330
6A
100
AcDbEntity
  8
DIMENSIONS
100
AcDbPolyline
 90
        4
 70
     0
 43
0.0
 10
9.079452034056654
 20
7.386074636864839
 10
8.961341797836182
 20
7.36638959749476
 10
8.961341797836182
 20
7.405759676234917
 10
9.079452034056654
 20
7.386074636864839
  0
LINE
  5
75
330
6A
100
AcDbEntity
  8
DIMENSIONS
100
AcDbLine
 10
8.961341797836182
 20
7.386074636864838
 30
0.0
 11
7.579452034056654
 21
7.386074636864838
 31
0.0
  0
LINE
  5
76
330
6A
100
AcDbEntity
  8
DIMENSIONS
100
AcDbLine
 10
7.831803297433326
 20
7.386074636864838
 30
0.0
 11
7.327100770679983
 21
7.386074636864838
 31
0.0
  0
ENDBLK
  5
6C
330
6A
100
AcDbEntity
  8
0
100
AcDbBlockEnd
  0
BLOCK
  5
79
330
78
100
AcDbEntity
  8
0
100
AcDbBlockBegin
  2
D2
 70
     0
 10
0.0
 20
0.0
 30
0.0
  3
D2
  1

  0
MTEXT
  5
7B
330
78
100
AcDbEntity
  8
DIMENSIONS
100
AcDbMText
 10
7.474659596841167
 20
4.258005337452326
 30
0.0
 40
0.0895833333333333
 41
0.0
 71
     5
 72
     1
  1
{\fArial|b0|i0|c0|p0;2.250 "}{\fMS Shell Dlg|b0|i0|c0|p0;\H0.9444444x;}
 73
     1
 44
1.0
  0
MTEXT
  5
7C
330
78
100
AcDbEntity
  8
DIMENSIONS
100
AcDbMText
 10
7.474659596841167
 20
4.258005337452326
 30
0.0
 40
0.0895833333333333
 41
0.0
 71
     5
 72
     1
  1
{\fArial|b0|i0|c0|p0;}
 73
     1
 44
1.0
  0
MTEXT
  5
7D
330
78
100
AcDbEntity
  8
DIMENSIONS
100
AcDbMText
 10
7.474659596841167
 20
4.258005337452326
 30
0.0
 40
0.0895833333333333
 41
0.0
 71
     5
 72
     1
  1
{\fArial|b0|i0|c0|p0;}
 73
     1
 44
1.0
  0
LINE
  5
7E
330
78
100
AcDbEntity
  8
DIMENSIONS
100
AcDbLine
 10
6.454452034056654
 20
5.732269887849094
 30
0.0
 11
6.454452034056654
 21
4.116765179972011
 31
0.0
  0
LINE
  5
7F
330
78
100
AcDbEntity
  8
DIMENSIONS
100
AcDbLine
 10
8.704452034056654
 20
5.732269887849094
 30
0.0
 11
8.704452034056654
 21
4.116765179972011
 31
0.0
  0
LWPOLYLINE
  5
80
330
78
100
AcDbEntity
  8
DIMENSIONS
100
AcDbPolyline
 90
        4
 70
     0
 43
0.0
 10
6.454452034056654
 20
4.195505337452326
 10
6.572562270277126
 20
4.215190376822404
 10
6.572562270277126
 20
4.175820298082247
 10
6.454452034056654
 20
4.195505337452326
  0
LINE
  5
81
330
78
100
AcDbEntity
  8
DIMENSIONS
100
AcDbLine
 10
6.572562270277126
 20
4.195505337452326
 30
0.0
 11
7.474659596841167
 21
4.195505337452326
 31
0.0
  0
LWPOLYLINE
  5
82
330
78
100
AcDbEntity
  8
DIMENSIONS
100
AcDbPolyline
 90
        4
 70
     0
 43
0.0
 10
8.704452034056654
 20
4.195505337452326
 10
8.586341797836182
 20
4.175820298082248
 10
8.586341797836182
 20
4.215190376822405
 10
8.704452034056654
 20
4.195505337452326
  0
LINE
  5
83
330
78
100
AcDbEntity
  8
DIMENSIONS
100
AcDbLine
 10
8.586341797836182
 20
4.195505337452326
 30
0.0
 11
7.474659596841167
 21
4.195505337452326
 31
0.0
  0
LINE
  5
84
330
78
100
AcDbEntity
  8
DIMENSIONS
100
AcDbLine
 10
7.727010846137999
 20
4.195505337452326
 30
0.0
 11
7.222308319384656
 21
4.195505337452326
 31
0.0
  0
ENDBLK
  5
7A
330
78
100
AcDbEntity
  8
0
100
AcDbBlockEnd
  0
BLOCK
  5
87
330
86
100
AcDbEntity
  8
0
100
AcDbBlockBegin
  2
D3
 70
     0
 10
0.0
 20
0.0
 30
0.0
  3
D3
  1

  0
MTEXT
  5
89
330
86
100
AcDbEntity
  8
DIMENSIONS
100
AcDbMText
 10
5.658101359690267
 20
4.258005337452326
 30
0.0
 40
0.0895833333333333
 41
0.0
 71
     5
 72
     1
  1
{\fArial|b0|i0|c0|p0;0.375 "}{\fMS Shell Dlg|b0|i0|c0|p0;\H0.9444444x;}
 73
     1
 44
1.0
  0
MTEXT
  5
8A
330
86
100
AcDbEntity
  8
DIMENSIONS
100
AcDbMText
 10
5.658101359690267
 20
4.258005337452326
 30
0.0
 40
0.0895833333333333
 41
0.0
 71
     5
 72
     1
  1
{\fArial|b0|i0|c0|p0;}
 73
     1
 44
1.0
  0
MTEXT
  5
8B
330
86
100
AcDbEntity
  8
DIMENSIONS
100
AcDbMText
 10
5.658101359690267
 20
4.258005337452326
 30
0.0
 40
0.0895833333333333
 41
0.0
 71
     5
 72
     1
  1
{\fArial|b0|i0|c0|p0;}
 73
     1
 44
1.0
  0
LINE
  5
8C
330
86
100
AcDbEntity
  8
DIMENSIONS
100
AcDbLine
 10
6.079452034056654
 20
4.982269887849094
 30
0.0
 11
6.079452034056654
 21
4.116765179972012
 31
0.0
  0
LINE
  5
8D
330
86
100
AcDbEntity
  8
DIMENSIONS
100
AcDbLine
 10
6.454452034056654
 20
5.732269887849094
 30
0.0
 11
6.454452034056654
 21
4.116765179972012
 31
0.0
  0
LWPOLYLINE
  5
8E
330
86
100
AcDbEntity
  8
DIMENSIONS
100
AcDbPolyline
 90
        4
 70
     0
 43
0.0
 10
6.079452034056654
 20
4.195505337452326
 10
6.197562270277126
 20
4.215190376822405
 10
6.197562270277126
 20
4.175820298082249
 10
6.079452034056654
 20
4.195505337452326
  0
LINE
  5
8F
330
86
100
AcDbEntity
  8
DIMENSIONS
100
AcDbLine
 10
6.079452034056654
 20
4.195505337452326
 30
0.0
 11
5.658101359690267
 21
4.195505337452327
 31
0.0
  0
LWPOLYLINE
  5
90
330
86
100
AcDbEntity
  8
DIMENSIONS
100
AcDbPolyline
 90
        4
 70
     0
 43
0.0
 10
6.454452034056654
 20
4.195505337452326
 10
6.336341797836182
 20
4.175820298082248
 10
6.336341797836182
 20
4.215190376822405
 10
6.454452034056654
 20
4.195505337452326
  0
LINE
  5
91
330
86
100
AcDbEntity
  8
DIMENSIONS
100
AcDbLine
 10
6.336341797836182
 20
4.195505337452326
 30
0.0
 11
6.197562270277126
 21
4.195505337452326
 31
0.0
  0
LINE
  5
92
330
86
100
AcDbEntity
  8
DIMENSIONS
100
AcDbLine
 10
5.910452594907263
 20
4.195505337452326
 30
0.0
 11
5.405750162019503
 21
4.195505337452326
 31
0.0
  0
ENDBLK
  5
88
330
86
100
AcDbEntity
  8
0
100
AcDbBlockEnd
  0
BLOCK
  5
95
330
94
100
AcDbEntity
  8
0
100
AcDbBlockBegin
  2
D4
 70
     0
 10
0.0
 20
0.0
 30
0.0
  3
D4
  1

  0
MTEXT
  5
97
330
94
100
AcDbEntity
  8
DIMENSIONS
100
AcDbMText
 10
9.58404961533434
 20
5.479430551604023
 30
0.0
 40
0.0895833333333333
 41
0.0
 71
     5
 72
     1
  1
{\fArial|b0|i0|c0|p0;0.750 "}{\fMS Shell Dlg|b0|i0|c0|p0;\H0.9444444x;}
 11
6.123031769111886E-17
 21
1.0
 31
0.0
 73
     1
 44
1.0
  0
MTEXT
  5
98
330
94
100
AcDbEntity
  8
DIMENSIONS
100
AcDbMText
 10
9.58404961533434
 20
5.479430551604023
 30
0.0
 40
0.0895833333333333
 41
0.0
 71
     5
 72
     1
  1
{\fArial|b0|i0|c0|p0;}
 11
6.123031769111886E-17
 21
1.0
 31
0.0
 73
     1
 44
1.0
  0
MTEXT
  5
99
330
94
100
AcDbEntity
  8
DIMENSIONS
100
AcDbMText
 10
9.58404961533434
 20
5.479430551604023
 30
0.0
 40
0.0895833333333333
 41
0.0
 71
     5
 72
     1
  1
{\fArial|b0|i0|c0|p0;}
 11
6.123031769111886E-17
 21
1.0
 31
0.0
 73
     1
 44
1.0
  0
LINE
  5
9A
330
94
100
AcDbEntity
  8
DIMENSIONS
100
AcDbLine
 10
6.158192191536969
 20
5.061010045329409
 30
0.0
 11
9.725289772814655
 21
5.061010045329409
 31
0.0
  0
LINE
  5
9B
330
94
100
AcDbEntity
  8
DIMENSIONS
100
AcDbLine
 10
6.533192191536969
 20
5.811010045329409
 30
0.0
 11
9.725289772814655
 21
5.811010045329409
 31
0.0
  0
LWPOLYLINE
  5
9C
330
94
100
AcDbEntity
  8
DIMENSIONS
100
AcDbPolyline
 90
        4
 70
     0
 43
0.0
 10
9.64654961533434
 20
5.061010045329409
 10
9.62686457596426
 20
5.179120281549881
 10
9.666234654704418
 20
5.179120281549881
 10
9.64654961533434
 20
5.061010045329409
  0
LINE
  5
9D
330
94
100
AcDbEntity
  8
DIMENSIONS
100
AcDbLine
 10
9.64654961533434
 20
5.179120281549881
 30
0.0
 11
9.64654961533434
 21
5.479430551604023
 31
0.0
  0
LWPOLYLINE
  5
9E
330
94
100
AcDbEntity
  8
DIMENSIONS
100
AcDbPolyline
 90
        4
 70
     0
 43
0.0
 10
9.64654961533434
 20
5.811010045329409
 10
9.666234654704418
 20
5.692899809108937
 10
9.62686457596426
 20
5.692899809108937
 10
9.64654961533434
 20
5.811010045329409
  0
LINE
  5
9F
330
94
100
AcDbEntity
  8
DIMENSIONS
100
AcDbLine
 10
9.64654961533434
 20
5.692899809108937
 30
0.0
 11
9.64654961533434
 21
5.479430551604023
 31
0.0
  0
LINE
  5
A0
330
94
100
AcDbEntity
  8
DIMENSIONS
100
AcDbLine
 10
9.64654961533434
 20
5.731781772741175
 30
0.0
 11
9.64654961533434
 21
5.227079339853415
 31
0.0
  0
ENDBLK
  5
96
330
94
100
AcDbEntity
  8
0
100
AcDbBlockEnd
  0
BLOCK
  5
A3
330
A2
100
AcDbEntity
  8
0
100
AcDbBlockBegin
  2
D5
 70
     0
 10
0.0
 20
0.0
 30
0.0
  3
D5
  1

  0
MTEXT
  5
A5
330
A2
100
AcDbEntity
  8
DIMENSIONS
100
AcDbMText
 10
6.80920458215428
 20
6.983341607521838
 30
0.0
 40
0.0895833333333333
 41
0.0
 71
     5
 72
     1
  1
{\fArial|b0|i0|c0|p0;1.500 "}{\fMS Shell Dlg|b0|i0|c0|p0;\H0.9444444x;}
 73
     1
 44
1.0
  0
MTEXT
  5
A6
330
A2
100
AcDbEntity
  8
DIMENSIONS
100
AcDbMText
 10
6.80920458215428
 20
6.983341607521838
 30
0.0
 40
0.0895833333333333
 41
0.0
 71
     5
 72
     1
  1
{\fArial|b0|i0|c0|p0;}
 73
     1
 44
1.0
  0
MTEXT
  5
A7
330
A2
100
AcDbEntity
  8
DIMENSIONS
100
AcDbMText
 10
6.80920458215428
 20
6.983341607521838
 30
0.0
 40
0.0895833333333333
 41
0.0
 71
     5
 72
     1
  1
{\fArial|b0|i0|c0|p0;}
 73
     1
 44
1.0
  0
LINE
  5
A8
330
A2
100
AcDbEntity
  8
DIMENSIONS
100
AcDbLine
 10
7.579452034056654
 20
5.889750202809724
 30
0.0
 11
7.579452034056654
 21
6.999581765002153
 31
0.0
  0
LINE
  5
A9
330
A2
100
AcDbEntity
  8
DIMENSIONS
100
AcDbLine
 10
6.079452034056654
 20
6.639750202809724
 30
0.0
 11
6.079452034056654
 21
6.999581765002153
 31
0.0
  0
LWPOLYLINE
  5
AA
330
A2
100
AcDbEntity
  8
DIMENSIONS
100
AcDbPolyline
 90
        4
 70
     0
 43
0.0
 10
7.579452034056654
 20
6.920841607521838
 10
7.461341797836182
 20
6.901156568151759
 10
7.461341797836182
 20
6.940526646891917
 10
7.579452034056654
 20
6.920841607521838
  0
LINE
  5
AB
330
A2
100
AcDbEntity
  8
DIMENSIONS
100
AcDbLine
 10
7.461341797836182
 20
6.920841607521838
 30
0.0
 11
6.80920458215428
 21
6.920841607521838
 31
0.0
  0
LWPOLYLINE
  5
AC
330
A2
100
AcDbEntity
  8
DIMENSIONS
100
AcDbPolyline
 90
        4
 70
     0
 43
0.0
 10
6.079452034056654
 20
6.920841607521838
 10
6.197562270277126
 20
6.940526646891917
 10
6.197562270277126
 20
6.90115656815176
 10
6.079452034056654
 20
6.920841607521838
  0
LINE
  5
AD
330
A2
100
AcDbEntity
  8
DIMENSIONS
100
AcDbLine
 10
6.197562270277126
 20
6.920841607521838
 30
0.0
 11
6.80920458215428
 21
6.920841607521838
 31
0.0
  0
LINE
  5
AE
330
A2
100
AcDbEntity
  8
DIMENSIONS
100
AcDbLine
 10
6.556853271844817
 20
6.920841607521838
 30
0.0
 11
7.06155579859816
 21
6.920841607521838
 31
0.0
  0
ENDBLK
  5
A4
330
A2
100
AcDbEntity
  8
0
100
AcDbBlockEnd
  0
BLOCK
  5
B1
330
B0
100
AcDbEntity
  8
0
100
AcDbBlockBegin
  2
D6
 70
     0
 10
0.0
 20
0.0
 30
0.0
  3
D6
  1

  0
MTEXT
  5
B3
330
B0
100
AcDbEntity
  8
DIMENSIONS
100
AcDbMText
 10
10.22089319904958
 20
6.045970165823388
 30
0.0
 40
0.0895833333333333
 41
0.0
 71
     5
 72
     1
  1
{\fArial|b0|i0|c0|p0;2X FOR }{\fArial|b0|i0|c0|p0; 1/4"}{\fArial|b0|i0|c0|p0;- 20 TPI}{\fArial|b0|i0|c0|p0;}
 11
0.7071067811865442
 21
-0.7071067811865508
 31
0.0
 73
     1
 44
1.0
  0
MTEXT
  5
B4
330
B0
100
AcDbEntity
  8
DIMENSIONS
100
AcDbMText
 10
10.22089319904958
 20
6.045970165823388
 30
0.0
 40
0.0895833333333333
 41
0.0
 71
     5
 72
     1
  1
{\fArial|b0|i0|c0|p0;}
 11
0.7071067811865442
 21
-0.7071067811865508
 31
0.0
 73
     1
 44
1.0
  0
MTEXT
  5
B5
330
B0
100
AcDbEntity
  8
DIMENSIONS
100
AcDbMText
 10
10.22089319904958
 20
6.045970165823388
 30
0.0
 40
0.0895833333333333
 41
0.0
 71
     5
 72
     1
  1
{\fArial|b0|i0|c0|p0;}
 11
0.7071067811865442
 21
-0.7071067811865508
 31
0.0
 73
     1
 44
1.0
  0
LINE
  5
B6
330
B0
100
AcDbEntity
  8
DIMENSIONS
100
AcDbLine
 10
8.661134783996566
 20
5.965682694001553
 30
0.0
 11
9.492641252915869
 21
6.797189162920847
 31
0.0
  0
LINE
  5
B7
330
B0
100
AcDbEntity
  8
DIMENSIONS
100
AcDbLine
 10
8.859124682728797
 20
5.767692795269319
 30
0.0
 11
9.6906311516481
 21
6.599199264188614
 31
0.0
  0
LWPOLYLINE
  5
B8
330
B0
100
AcDbEntity
  8
DIMENSIONS
100
AcDbPolyline
 90
        4
 70
     0
 43
0.0
 10
9.436963553609841
 20
6.74151146361482
 10
9.339527579824292
 20
6.811108587747355
 10
9.367366429477308
 20
6.838947437400368
 10
9.436963553609841
 20
6.74151146361482
  0
LINE
  5
B9
330
B0
100
AcDbEntity
  8
DIMENSIONS
100
AcDbLine
 10
9.3534470046508
 20
6.825028012573862
 30
0.0
 11
9.336743694858992
 21
6.841731322365669
 31
0.0
  0
LWPOLYLINE
  5
BA
330
B0
100
AcDbEntity
  8
DIMENSIONS
100
AcDbPolyline
 90
        4
 70
     0
 43
0.0
 10
9.634953452342074
 20
6.543521564882586
 10
9.732389426127622
 20
6.473924440750051
 10
9.704550576474606
 20
6.446085591097038
 10
9.634953452342074
 20
6.543521564882586
  0
LINE
  5
BB
330
B0
100
AcDbEntity
  8
DIMENSIONS
100
AcDbLine
 10
9.718470001301114
 20
6.460005015923545
 30
0.0
 11
10.17669902522542
 21
6.00177599199923
 31
0.0
  0
LINE
  5
BC
330
B0
100
AcDbEntity
  8
DIMENSIONS
100
AcDbLine
 10
9.74782602790436
 20
6.430648989320299
 30
0.0
 11
10.60557198030698
 21
5.572903036917667
 31
0.0
  0
ENDBLK
  5
B2
330
B0
100
AcDbEntity
  8
0
100
AcDbBlockEnd
  0
BLOCK
  5
BF
330
BE
100
AcDbEntity
  8
0
100
AcDbBlockBegin
  2
D7
 70
     0
 10
0.0
 20
0.0
 30
0.0
  3
D7
  1

  0
MTEXT
  5
C1
330
BE
100
AcDbEntity
  8
DIMENSIONS
100
AcDbMText
 10
8.178710336760272
 20
4.704083420160248
 30
0.0
 40
0.0895833333333333
 41
0.0
 71
     5
 72
     1
  1
{\fAlibre Symbols|b0|i0|c0|p0;n}{\fArial|b0|i0|c0|p0;0.576 "}{\fMS Shell Dlg|b0|i0|c0|p0;\H0.9444444x;}
 73
     1
 44
1.0
  0
MTEXT
  5
C2
330
BE
100
AcDbEntity
  8
DIMENSIONS
100
AcDbMText
 10
8.178710336760272
 20
4.704083420160248
 30
0.0
 40
0.0895833333333333
 41
0.0
 71
     5
 72
     1
  1
{\fArial|b0|i0|c0|p0;}
 73
     1
 44
1.0
  0
MTEXT
  5
C3
330
BE
100
AcDbEntity
  8
DIMENSIONS
100
AcDbMText
 10
8.178710336760272
 20
4.704083420160248
 30
0.0
 40
0.0895833333333333
 41
0.0
 71
     5
 72
     1
  1
{\fArial|b0|i0|c0|p0;}
 73
     1
 44
1.0
  0
LINE
  5
C4
330
BE
100
AcDbEntity
  8
DIMENSIONS
100
AcDbLine
 10
7.867452034056654
 20
5.732269887849094
 30
0.0
 11
7.867452034056654
 21
4.5420099293466
 31
0.0
  0
LINE
  5
C5
330
BE
100
AcDbEntity
  8
DIMENSIONS
100
AcDbLine
 10
7.291452034056654
 20
5.732269887849094
 30
0.0
 11
7.291452034056654
 21
4.5420099293466
 31
0.0
  0
LWPOLYLINE
  5
C6
330
BE
100
AcDbEntity
  8
DIMENSIONS
100
AcDbPolyline
 90
        4
 70
     0
 43
0.0
 10
7.867452034056654
 20
4.620750086826915
 10
7.749341797836181
 20
4.601065047456836
 10
7.749341797836181
 20
4.640435126196993
 10
7.867452034056654
 20
4.620750086826915
  0
LINE
  5
C7
330
BE
100
AcDbEntity
  8
DIMENSIONS
100
AcDbLine
 10
7.867452034056654
 20
4.620750086826915
 30
0.0
 11
8.178710336760272
 21
4.620750086826915
 31
0.0
  0
LWPOLYLINE
  5
C8
330
BE
100
AcDbEntity
  8
DIMENSIONS
100
AcDbPolyline
 90
        4
 70
     0
 43
0.0
 10
7.291452034056654
 20
4.620750086826915
 10
7.409562270277126
 20
4.640435126196993
 10
7.409562270277126
 20
4.601065047456836
 10
7.291452034056654
 20
4.620750086826915
  0
LINE
  5
C9
330
BE
100
AcDbEntity
  8
DIMENSIONS
100
AcDbLine
 10
7.409562270277126
 20
4.620750086826915
 30
0.0
 11
7.749341797836181
 21
4.620750086826915
 31
0.0
  0
LINE
  5
CA
330
BE
100
AcDbEntity
  8
DIMENSIONS
100
AcDbLine
 10
8.479672698524054
 20
4.620750086826915
 30
0.0
 11
7.877747956223374
 21
4.620750086826915
 31
0.0
  0
ENDBLK
  5
C0
330
BE
100
AcDbEntity
  8
0
100
AcDbBlockEnd
  0
BLOCK
  5
D5
330
D4
100
AcDbEntity
  8
0
100
AcDbBlockBegin
  2
D8
 70
     0
 10
0.0
 20
0.0
 30
0.0
  3
D8
  1

  0
MTEXT
  5
D7
330
D4
100
AcDbEntity
  8
DIMENSIONS
100
AcDbMText
 10
3.229003305510267
 20
5.811010045329409
 30
0.0
 40
0.0895833333333333
 41
0.0
 71
     5
 72
     1
  1
{\fArial|b0|i0|c0|p0;1.500 "}{\fMS Shell Dlg|b0|i0|c0|p0;\H0.9444444x;}
 11
6.123031769111886E-17
 21
1.0
 31
0.0
 73
     1
 44
1.0
  0
MTEXT
  5
D8
330
D4
100
AcDbEntity
  8
DIMENSIONS
100
AcDbMText
 10
3.229003305510267
 20
5.811010045329409
 30
0.0
 40
0.0895833333333333
 41
0.0
 71
     5
 72
     1
  1
{\fArial|b0|i0|c0|p0;}
 11
6.123031769111886E-17
 21
1.0
 31
0.0
 73
     1
 44
1.0
  0
MTEXT
  5
D9
330
D4
100
AcDbEntity
  8
DIMENSIONS
100
AcDbMText
 10
3.229003305510267
 20
5.811010045329409
 30
0.0
 40
0.0895833333333333
 41
0.0
 71
     5
 72
     1
  1
{\fArial|b0|i0|c0|p0;}
 11
6.123031769111886E-17
 21
1.0
 31
0.0
 73
     1
 44
1.0
  0
LINE
  5
DA
330
D4
100
AcDbEntity
  8
DIMENSIONS
100
AcDbLine
 10
3.745598650354094
 20
6.561010045329409
 30
0.0
 11
3.212763148029953
 21
6.561010045329409
 31
0.0
  0
LINE
  5
DB
330
D4
100
AcDbEntity
  8
DIMENSIONS
100
AcDbLine
 10
3.745598650354094
 20
5.061010045329409
 30
0.0
 11
3.212763148029953
 21
5.061010045329409
 31
0.0
  0
LWPOLYLINE
  5
DC
330
D4
100
AcDbEntity
  8
DIMENSIONS
100
AcDbPolyline
 90
        4
 70
     0
 43
0.0
 10
3.291503305510267
 20
6.561010045329409
 10
3.311188344880346
 20
6.442899809108937
 10
3.271818266140189
 20
6.442899809108937
 10
3.291503305510267
 20
6.561010045329409
  0
LINE
  5
DD
330
D4
100
AcDbEntity
  8
DIMENSIONS
100
AcDbLine
 10
3.291503305510267
 20
6.442899809108937
 30
0.0
 11
3.291503305510267
 21
5.811010045329409
 31
0.0
  0
LWPOLYLINE
  5
DE
330
D4
100
AcDbEntity
  8
DIMENSIONS
100
AcDbPolyline
 90
        4
 70
     0
 43
0.0
 10
3.291503305510267
 20
5.061010045329409
 10
3.271818266140189
 20
5.179120281549881
 10
3.311188344880346
 20
5.179120281549881
 10
3.291503305510267
 20
5.061010045329409
  0
LINE
  5
DF
330
D4
100
AcDbEntity
  8
DIMENSIONS
100
AcDbLine
 10
3.291503305510267
 20
5.179120281549881
 30
0.0
 11
3.291503305510267
 21
5.811010045329409
 31
0.0
  0
LINE
  5
E0
330
D4
100
AcDbEntity
  8
DIMENSIONS
100
AcDbLine
 10
3.291503305510267
 20
5.558658781952738
 30
0.0
 11
3.291503305510267
 21
6.063361308706081
 31
0.0
  0
ENDBLK
  5
D6
330
D4
100
AcDbEntity
  8
0
100
AcDbBlockEnd
  0
BLOCK
  5
E3
330
E2
100
AcDbEntity
  8
0
100
AcDbBlockBegin
  2
D9
 70
     0
 10
0.0
 20
0.0
 30
0.0
  3
D9
  1

  0
MTEXT
  5
E5
330
E2
100
AcDbEntity
  8
DIMENSIONS
100
AcDbMText
 10
4.261838807834409
 20
7.10098182498
 30
0.0
 40
0.0895833333333333
 41
0.0
 71
     5
 72
     1
  1
{\fArial|b0|i0|c0|p0;0.875 "}{\fMS Shell Dlg|b0|i0|c0|p0;\H0.9444444x;}
 73
     1
 44
1.0
  0
MTEXT
  5
E6
330
E2
100
AcDbEntity
  8
DIMENSIONS
100
AcDbMText
 10
4.261838807834409
 20
7.10098182498
 30
0.0
 40
0.0895833333333333
 41
0.0
 71
     5
 72
     1
  1
{\fArial|b0|i0|c0|p0;}
 73
     1
 44
1.0
  0
MTEXT
  5
E7
330
E2
100
AcDbEntity
  8
DIMENSIONS
100
AcDbMText
 10
4.261838807834409
 20
7.10098182498
 30
0.0
 40
0.0895833333333333
 41
0.0
 71
     5
 72
     1
  1
{\fArial|b0|i0|c0|p0;}
 73
     1
 44
1.0
  0
LINE
  5
E8
330
E2
100
AcDbEntity
  8
DIMENSIONS
100
AcDbLine
 10
4.699338807834409
 20
6.639750202809724
 30
0.0
 11
4.699338807834409
 21
7.117221982460315
 31
0.0
  0
LINE
  5
E9
330
E2
100
AcDbEntity
  8
DIMENSIONS
100
AcDbLine
 10
3.824338807834409
 20
6.639750202809724
 30
0.0
 11
3.824338807834409
 21
7.117221982460315
 31
0.0
  0
LWPOLYLINE
  5
EA
330
E2
100
AcDbEntity
  8
DIMENSIONS
100
AcDbPolyline
 90
        4
 70
     0
 43
0.0
 10
4.699338807834409
 20
7.03848182498
 10
4.581228571613937
 20
7.018796785609921
 10
4.581228571613937
 20
7.058166864350079
 10
4.699338807834409
 20
7.03848182498
  0
LINE
  5
EB
330
E2
100
AcDbEntity
  8
DIMENSIONS
100
AcDbLine
 10
4.581228571613937
 20
7.03848182498
 30
0.0
 11
4.261838807834409
 21
7.03848182498
 31
0.0
  0
LWPOLYLINE
  5
EC
330
E2
100
AcDbEntity
  8
DIMENSIONS
100
AcDbPolyline
 90
        4
 70
     0
 43
0.0
 10
3.824338807834409
 20
7.03848182498
 10
3.942449044054881
 20
7.058166864350079
 10
3.942449044054881
 20
7.018796785609921
 10
3.824338807834409
 20
7.03848182498
  0
LINE
  5
ED
330
E2
100
AcDbEntity
  8
DIMENSIONS
100
AcDbLine
 10
3.942449044054881
 20
7.03848182498
 30
0.0
 11
4.261838807834409
 21
7.03848182498
 31
0.0
  0
LINE
  5
EE
330
E2
100
AcDbEntity
  8
DIMENSIONS
100
AcDbLine
 10
4.009487527561933
 20
7.03848182498
 30
0.0
 11
4.514190054315276
 21
7.03848182498
 31
0.0
  0
ENDBLK
  5
E4
330
E2
100
AcDbEntity
  8
0
100
AcDbBlockEnd
  0
BLOCK
  5
120
330
11F
100
AcDbEntity
  8
0
100
AcDbBlockBegin
  2
D10
 70
     0
 10
0.0
 20
0.0
 30
0.0
  3
D10
  1

  0
MTEXT
  5
122
330
11F
100
AcDbEntity
  8
DIMENSIONS
100
AcDbMText
 10
8.96951930729423
 20
10.58332788662646
 30
0.0
 40
0.0895833333333333
 41
0.0
 71
     5
 72
     1
  1
{\fArial|b0|i0|c0|p0;2X }{\fAlibre Symbols|b0|i0|c0|p0;n}{\fArial|b0|i0|c0|p0;0.324 "}{\fMS Shell Dlg|b0|i0|c0|p0;\H0.9444444x;}
 73
     1
 44
1.0
  0
MTEXT
  5
123
330
11F
100
AcDbEntity
  8
DIMENSIONS
100
AcDbMText
 10
8.96951930729423
 20
10.58332788662646
 30
0.0
 40
0.0895833333333333
 41
0.0
 71
     5
 72
     1
  1
{\fArial|b0|i0|c0|p0;}
 73
     1
 44
1.0
  0
MTEXT
  5
124
330
11F
100
AcDbEntity
  8
DIMENSIONS
100
AcDbMText
 10
8.96951930729423
 20
10.58332788662646
 30
0.0
 40
0.0895833333333333
 41
0.0
 71
     5
 72
     1
  1
{\fArial|b0|i0|c0|p0;}
 73
     1
 44
1.0
  0
LINE
  5
125
330
11F
100
AcDbEntity
  8
DIMENSIONS
100
AcDbLine
 10
8.167452034056653
 20
9.574058112197008
 30
0.0
 11
8.167452034056655
 21
10.57873471077344
 31
0.0
  0
LINE
  5
126
330
11F
100
AcDbEntity
  8
DIMENSIONS
100
AcDbLine
 10
8.491452034056655
 20
9.574058112197008
 30
0.0
 11
8.491452034056655
 21
10.57873471077344
 31
0.0
  0
LWPOLYLINE
  5
127
330
11F
100
AcDbEntity
  8
DIMENSIONS
100
AcDbPolyline
 90
        4
 70
     0
 43
0.0
 10
8.167452034056655
 20
10.49999455329313
 10
8.285562270277127
 20
10.51967959266321
 10
8.285562270277127
 20
10.48030951392305
 10
8.167452034056655
 20
10.49999455329313
  0
LINE
  5
128
330
11F
100
AcDbEntity
  8
DIMENSIONS
100
AcDbLine
 10
8.285562270277127
 20
10.49999455329313
 30
0.0
 11
8.373341797836181
 21
10.49999455329313
 31
0.0
  0
LWPOLYLINE
  5
129
330
11F
100
AcDbEntity
  8
DIMENSIONS
100
AcDbPolyline
 90
        4
 70
     0
 43
0.0
 10
8.491452034056655
 20
10.49999455329313
 10
8.373341797836181
 20
10.48030951392305
 10
8.373341797836181
 20
10.51967959266321
 10
8.491452034056655
 20
10.49999455329313
  0
LINE
  5
12A
330
11F
100
AcDbEntity
  8
DIMENSIONS
100
AcDbLine
 10
8.491452034056655
 20
10.49999455329313
 30
0.0
 11
8.96951930729423
 21
10.49999455329313
 31
0.0
  0
LINE
  5
12B
330
11F
100
AcDbEntity
  8
DIMENSIONS
100
AcDbLine
 10
8.5852235508716
 20
10.49999455329313
 30
0.0
 11
9.353814988624391
 21
10.49999455329313
 31
0.0
  0
ENDBLK
  5
121
330
11F
100
AcDbEntity
  8
0
100
AcDbBlockEnd
  0
BLOCK
  5
12E
330
12D
100
AcDbEntity
  8
0
100
AcDbBlockBegin
  2
D11
 70
     0
 10
0.0
 20
0.0
 30
0.0
  3
D11
  1

  0
MTEXT
  5
130
330
12D
100
AcDbEntity
  8
DIMENSIONS
100
AcDbMText
 10
7.579452034056653
 20
8.684812290461965
 30
0.0
 40
0.0895833333333333
 41
0.0
 71
     5
 72
     1
  1
{\fArial|b0|i0|c0|p0;1.500 "}{\fMS Shell Dlg|b0|i0|c0|p0;\H0.9444444x;}
 73
     1
 44
1.0
  0
MTEXT
  5
131
330
12D
100
AcDbEntity
  8
DIMENSIONS
100
AcDbMText
 10
7.579452034056653
 20
8.684812290461965
 30
0.0
 40
0.0895833333333333
 41
0.0
 71
     5
 72
     1
  1
{\fArial|b0|i0|c0|p0;}
 73
     1
 44
1.0
  0
MTEXT
  5
132
330
12D
100
AcDbEntity
  8
DIMENSIONS
100
AcDbMText
 10
7.579452034056653
 20
8.684812290461965
 30
0.0
 40
0.0895833333333333
 41
0.0
 71
     5
 72
     1
  1
{\fArial|b0|i0|c0|p0;}
 73
     1
 44
1.0
  0
LINE
  5
133
330
12D
100
AcDbEntity
  8
DIMENSIONS
100
AcDbLine
 10
8.329452034056654
 20
9.416577797236378
 30
0.0
 11
8.329452034056654
 21
8.54357213298165
 31
0.0
  0
LINE
  5
134
330
12D
100
AcDbEntity
  8
DIMENSIONS
100
AcDbLine
 10
6.829452034056654
 20
9.416577797236378
 30
0.0
 11
6.829452034056654
 21
8.54357213298165
 31
0.0
  0
LWPOLYLINE
  5
135
330
12D
100
AcDbEntity
  8
DIMENSIONS
100
AcDbPolyline
 90
        4
 70
     0
 43
0.0
 10
8.329452034056654
 20
8.622312290461965
 10
8.211341797836182
 20
8.602627251091885
 10
8.211341797836182
 20
8.641997329832042
 10
8.329452034056654
 20
8.622312290461965
  0
LINE
  5
136
330
12D
100
AcDbEntity
  8
DIMENSIONS
100
AcDbLine
 10
8.211341797836182
 20
8.622312290461965
 30
0.0
 11
7.579452034056653
 21
8.622312290461965
 31
0.0
  0
LWPOLYLINE
  5
137
330
12D
100
AcDbEntity
  8
DIMENSIONS
100
AcDbPolyline
 90
        4
 70
     0
 43
0.0
 10
6.829452034056654
 20
8.622312290461965
 10
6.947562270277126
 20
8.641997329832042
 10
6.947562270277126
 20
8.602627251091885
 10
6.829452034056654
 20
8.622312290461965
  0
LINE
  5
138
330
12D
100
AcDbEntity
  8
DIMENSIONS
100
AcDbLine
 10
6.947562270277126
 20
8.622312290461965
 30
0.0
 11
7.579452034056653
 21
8.622312290461965
 31
0.0
  0
LINE
  5
139
330
12D
100
AcDbEntity
  8
DIMENSIONS
100
AcDbLine
 10
7.327100770679983
 20
8.622312290461965
 30
0.0
 11
7.831803297433326
 21
8.622312290461965
 31
0.0
  0
ENDBLK
  5
12F
330
12D
100
AcDbEntity
  8
0
100
AcDbBlockEnd
  0
BLOCK
  5
13C
330
13B
100
AcDbEntity
  8
0
100
AcDbBlockBegin
  2
D12
 70
     0
 10
0.0
 20
0.0
 30
0.0
  3
D12
  1

  0
MTEXT
  5
13E
330
13B
100
AcDbEntity
  8
DIMENSIONS
100
AcDbMText
 10
8.719591155765563
 20
8.68705929733635
 30
0.0
 40
0.0895833333333333
 41
0.0
 71
     5
 72
     1
  1
{\fArial|b0|i0|c0|p0;0.750 "}{\fMS Shell Dlg|b0|i0|c0|p0;\H0.9444444x;}
 73
     1
 44
1.0
  0
MTEXT
  5
13F
330
13B
100
AcDbEntity
  8
DIMENSIONS
100
AcDbMText
 10
8.719591155765563
 20
8.68705929733635
 30
0.0
 40
0.0895833333333333
 41
0.0
 71
     5
 72
     1
  1
{\fArial|b0|i0|c0|p0;}
 73
     1
 44
1.0
  0
MTEXT
  5
140
330
13B
100
AcDbEntity
  8
DIMENSIONS
100
AcDbMText
 10
8.719591155765563
 20
8.68705929733635
 30
0.0
 40
0.0895833333333333
 41
0.0
 71
     5
 72
     1
  1
{\fArial|b0|i0|c0|p0;}
 73
     1
 44
1.0
  0
LINE
  5
141
330
13B
100
AcDbEntity
  8
DIMENSIONS
100
AcDbLine
 10
8.329452034056654
 20
9.416577797236378
 30
0.0
 11
8.329452034056654
 21
8.545819139856036
 31
0.0
  0
LINE
  5
142
330
13B
100
AcDbEntity
  8
DIMENSIONS
100
AcDbLine
 10
9.079452034056654
 20
9.041577797236378
 30
0.0
 11
9.079452034056654
 21
8.545819139856036
 31
0.0
  0
LWPOLYLINE
  5
143
330
13B
100
AcDbEntity
  8
DIMENSIONS
100
AcDbPolyline
 90
        4
 70
     0
 43
0.0
 10
8.329452034056654
 20
8.62455929733635
 10
8.447562270277126
 20
8.64424433670643
 10
8.447562270277126
 20
8.604874257966273
 10
8.329452034056654
 20
8.62455929733635
  0
LINE
  5
144
330
13B
100
AcDbEntity
  8
DIMENSIONS
100
AcDbLine
 10
8.447562270277126
 20
8.62455929733635
 30
0.0
 11
8.719591155765563
 21
8.62455929733635
 31
0.0
  0
LWPOLYLINE
  5
145
330
13B
100
AcDbEntity
  8
DIMENSIONS
100
AcDbPolyline
 90
        4
 70
     0
 43
0.0
 10
9.079452034056654
 20
8.62455929733635
 10
8.961341797836182
 20
8.604874257966273
 10
8.961341797836182
 20
8.64424433670643
 10
9.079452034056654
 20
8.62455929733635
  0
LINE
  5
146
330
13B
100
AcDbEntity
  8
DIMENSIONS
100
AcDbLine
 10
8.961341797836182
 20
8.62455929733635
 30
0.0
 11
8.719591155765563
 21
8.62455929733635
 31
0.0
  0
LINE
  5
147
330
13B
100
AcDbEntity
  8
DIMENSIONS
100
AcDbLine
 10
8.971942390982559
 20
8.62455929733635
 30
0.0
 11
8.467239864229215
 21
8.62455929733635
 31
0.0
  0
ENDBLK
  5
13D
330
13B
100
AcDbEntity
  8
0
100
AcDbBlockEnd
  0
BLOCK
  5
14A
330
149
100
AcDbEntity
  8
0
100
AcDbBlockBegin
  2
D13
 70
     0
 10
0.0
 20
0.0
 30
0.0
  3
D13
  1

  0
MTEXT
  5
14C
330
149
100
AcDbEntity
  8
DIMENSIONS
100
AcDbMText
 10
5.554265300119956
 20
9.968071884996291
 30
0.0
 40
0.0895833333333333
 41
0.0
 71
     5
 72
     1
  1
{\fArial|b0|i0|c0|p0;0.375 "}{\fMS Shell Dlg|b0|i0|c0|p0;\H0.9444444x;}
 11
6.123031769111886E-17
 21
1.0
 31
0.0
 73
     1
 44
1.0
  0
MTEXT
  5
14D
330
149
100
AcDbEntity
  8
DIMENSIONS
100
AcDbMText
 10
5.554265300119956
 20
9.968071884996291
 30
0.0
 40
0.0895833333333333
 41
0.0
 71
     5
 72
     1
  1
{\fArial|b0|i0|c0|p0;}
 11
6.123031769111886E-17
 21
1.0
 31
0.0
 73
     1
 44
1.0
  0
MTEXT
  5
14E
330
149
100
AcDbEntity
  8
DIMENSIONS
100
AcDbMText
 10
5.554265300119956
 20
9.968071884996291
 30
0.0
 40
0.0895833333333333
 41
0.0
 71
     5
 72
     1
  1
{\fArial|b0|i0|c0|p0;}
 11
6.123031769111886E-17
 21
1.0
 31
0.0
 73
     1
 44
1.0
  0
LINE
  5
14F
330
149
100
AcDbEntity
  8
DIMENSIONS
100
AcDbLine
 10
9.00071187657634
 20
9.120317954716693
 30
0.0
 11
5.538025142639642
 21
9.120317954716693
 31
0.0
  0
LINE
  5
150
330
149
100
AcDbEntity
  8
DIMENSIONS
100
AcDbLine
 10
8.25071187657634
 20
9.495317954716693
 30
0.0
 11
5.538025142639642
 21
9.495317954716693
 31
0.0
  0
LWPOLYLINE
  5
151
330
149
100
AcDbEntity
  8
DIMENSIONS
100
AcDbPolyline
 90
        4
 70
     0
 43
0.0
 10
5.616765300119957
 20
9.120317954716693
 10
5.597080260749879
 20
9.238428190937165
 10
5.636450339490036
 20
9.238428190937165
 10
5.616765300119957
 20
9.120317954716693
  0
LINE
  5
152
330
149
100
AcDbEntity
  8
DIMENSIONS
100
AcDbLine
 10
5.616765300119957
 20
9.238428190937165
 30
0.0
 11
5.616765300119957
 21
9.377207718496221
 31
0.0
  0
LWPOLYLINE
  5
153
330
149
100
AcDbEntity
  8
DIMENSIONS
100
AcDbPolyline
 90
        4
 70
     0
 43
0.0
 10
5.616765300119957
 20
9.495317954716693
 10
5.636450339490036
 20
9.377207718496221
 10
5.597080260749879
 20
9.377207718496221
 10
5.616765300119957
 20
9.495317954716693
  0
LINE
  5
154
330
149
100
AcDbEntity
  8
DIMENSIONS
100
AcDbLine
 10
5.616765300119957
 20
9.495317954716693
 30
0.0
 11
5.616765300119957
 21
9.968071884996291
 31
0.0
  0
LINE
  5
155
330
149
100
AcDbEntity
  8
DIMENSIONS
100
AcDbLine
 10
5.616765300119957
 20
10.22042321783348
 30
0.0
 11
5.616765300119957
 21
9.71572059721456
 31
0.0
  0
ENDBLK
  5
14B
330
149
100
AcDbEntity
  8
0
100
AcDbBlockEnd
  0
BLOCK
  5
159
330
158
100
AcDbEntity
  8
0
100
AcDbBlockBegin
  2
BLOCK1
 70
     0
 10
0.0
 20
0.0
 30
0.0
  3
BLOCK1
  1

  0
LINE
  5
15B
330
158
100
AcDbEntity
  8
CONTINUOUS
100
AcDbLine
 10
0.3937007874015748
 20
0.3937007874015748
 30
0.0
 11
16.14173228346457
 21
0.3937007874015748
 31
0.0
  0
LINE
  5
15C
330
158
100
AcDbEntity
  8
CONTINUOUS
100
AcDbLine
 10
16.14173228346457
 20
11.2992125984252
 30
0.0
 11
0.3937007874015748
 21
11.2992125984252
 31
0.0
  0
LINE
  5
15D
330
158
100
AcDbEntity
  8
CONTINUOUS
100
AcDbLine
 10
6.299212598425196
 20
0.1968503937007874
 30
0.0
 11
10.23622047244094
 21
0.1968503937007874
 31
0.0
  0
LINE
  5
15E
330
158
100
AcDbEntity
  8
CONTINUOUS
100
AcDbLine
 10
0.3937007874015748
 20
11.2992125984252
 30
0.0
 11
0.3937007874015748
 21
0.3937007874015748
 31
0.0
  0
LINE
  5
15F
330
158
100
AcDbEntity
  8
CONTINUOUS
100
AcDbLine
 10
0.0
 20
0.0
 30
0.0
 11
0.0
 21
0.3937007874015748
 31
0.0
  0
LINE
  5
160
330
158
100
AcDbEntity
  8
CONTINUOUS
100
AcDbLine
 10
0.0
 20
0.0
 30
0.0
 11
0.3937007874015748
 21
0.0
 31
0.0
  0
LINE
  5
161
330
158
100
AcDbEntity
  8
CONTINUOUS
100
AcDbLine
 10
2.362204724409449
 20
0.1968503937007874
 30
0.0
 11
2.362204724409449
 21
0.3937007874015748
 31
0.0
  0
LINE
  5
162
330
158
100
AcDbEntity
  8
CONTINUOUS
100
AcDbLine
 10
0.3937007874015748
 20
2.224409448818898
 30
0.0
 11
0.1968503937007874
 21
2.224409448818898
 31
0.0
  0
LINE
  5
163
330
158
100
AcDbEntity
  8
CONTINUOUS
100
AcDbLine
 10
0.3937007874015748
 20
4.035433070866142
 30
0.0
 11
0.1968503937007874
 21
4.035433070866142
 31
0.0
  0
LINE
  5
164
330
158
100
AcDbEntity
  8
CONTINUOUS
100
AcDbLine
 10
4.330708661417323
 20
0.1968503937007874
 30
0.0
 11
4.330708661417323
 21
0.3937007874015748
 31
0.0
  0
LINE
  5
165
330
158
100
AcDbEntity
  8
CONTINUOUS
100
AcDbLine
 10
8.26771653543307
 20
0.3937007874015748
 30
0.0
 11
8.26771653543307
 21
0.1968503937007874
 31
0.0
  0
LINE
  5
166
330
158
100
AcDbEntity
  8
CONTINUOUS
100
AcDbLine
 10
6.299212598425196
 20
0.1968503937007874
 30
0.0
 11
6.299212598425196
 21
0.3937007874015748
 31
0.0
  0
LINE
  5
167
330
158
100
AcDbEntity
  8
CONTINUOUS
100
AcDbLine
 10
6.692913385826771
 20
0.1968503937007874
 30
0.0
 11
6.692913385826771
 21
0.3937007874015748
 31
0.0
  0
LINE
  5
168
330
158
100
AcDbEntity
  8
CONTINUOUS
100
AcDbLine
 10
7.086614173228346
 20
0.1968503937007874
 30
0.0
 11
7.086614173228346
 21
0.3937007874015748
 31
0.0
  0
LINE
  5
169
330
158
100
AcDbEntity
  8
CONTINUOUS
100
AcDbLine
 10
7.480314960629921
 20
0.1968503937007874
 30
0.0
 11
7.480314960629921
 21
0.3937007874015748
 31
0.0
  0
LINE
  5
16A
330
158
100
AcDbEntity
  8
CONTINUOUS
100
AcDbLine
 10
7.874015748031496
 20
0.1968503937007874
 30
0.0
 11
7.874015748031496
 21
0.3937007874015748
 31
0.0
  0
LINE
  5
16B
330
158
100
AcDbEntity
  8
CONTINUOUS
100
AcDbLine
 10
0.3937007874015748
 20
7.65748031496063
 30
0.0
 11
0.1968503937007874
 21
7.65748031496063
 31
0.0
  0
LINE
  5
16C
330
158
100
AcDbEntity
  8
CONTINUOUS
100
AcDbLine
 10
0.3937007874015748
 20
9.468503937007874
 30
0.0
 11
0.1968503937007874
 21
9.468503937007874
 31
0.0
  0
LINE
  5
16D
330
158
100
AcDbEntity
  8
CONTINUOUS
100
AcDbLine
 10
0.0
 20
11.69291338582677
 30
0.0
 11
0.0
 21
11.2992125984252
 31
0.0
  0
LINE
  5
16E
330
158
100
AcDbEntity
  8
CONTINUOUS
100
AcDbLine
 10
0.3937007874015748
 20
11.69291338582677
 30
0.0
 11
0.0
 21
11.69291338582677
 31
0.0
  0
LINE
  5
16F
330
158
100
AcDbEntity
  8
CONTINUOUS
100
AcDbLine
 10
2.362204724409449
 20
11.2992125984252
 30
0.0
 11
2.362204724409449
 21
11.49606299212598
 31
0.0
  0
LINE
  5
170
330
158
100
AcDbEntity
  8
CONTINUOUS
100
AcDbLine
 10
4.330708661417323
 20
11.2992125984252
 30
0.0
 11
4.330708661417323
 21
11.49606299212598
 31
0.0
  0
LINE
  5
171
330
158
100
AcDbEntity
  8
CONTINUOUS
100
AcDbLine
 10
6.299212598425196
 20
11.2992125984252
 30
0.0
 11
6.299212598425196
 21
11.49606299212598
 31
0.0
  0
LINE
  5
172
330
158
100
AcDbEntity
  8
CONTINUOUS
100
AcDbLine
 10
16.14173228346457
 20
0.3937007874015748
 30
0.0
 11
16.14173228346457
 21
11.2992125984252
 31
0.0
  0
LINE
  5
173
330
158
100
AcDbEntity
  8
CONTINUOUS
100
AcDbLine
 10
12.40157480314961
 20
0.7874015748031495
 30
0.0
 11
16.14173228346457
 21
0.7874015748031495
 31
0.0
  0
LINE
  5
174
330
158
100
AcDbEntity
  8
CONTINUOUS
100
AcDbLine
 10
9.448818897637794
 20
1.181102362204724
 30
0.0
 11
16.14173228346457
 21
1.181102362204724
 31
0.0
  0
LINE
  5
175
330
158
100
AcDbEntity
  8
CONTINUOUS
100
AcDbLine
 10
9.448818897637794
 20
1.574803149606299
 30
0.0
 11
16.14173228346457
 21
1.574803149606299
 31
0.0
  0
LINE
  5
176
330
158
100
AcDbEntity
  8
CONTINUOUS
100
AcDbLine
 10
9.448818897637794
 20
1.811023622047244
 30
0.0
 11
16.14173228346457
 21
1.811023622047244
 31
0.0
  0
LINE
  5
177
330
158
100
AcDbEntity
  8
CONTINUOUS
100
AcDbLine
 10
10.23622047244094
 20
0.1968503937007874
 30
0.0
 11
10.23622047244094
 21
0.3937007874015748
 31
0.0
  0
LINE
  5
178
330
158
100
AcDbEntity
  8
CONTINUOUS
100
AcDbLine
 10
8.661417322834646
 20
0.1968503937007874
 30
0.0
 11
8.661417322834646
 21
0.3937007874015748
 31
0.0
  0
LINE
  5
179
330
158
100
AcDbEntity
  8
CONTINUOUS
100
AcDbLine
 10
9.05511811023622
 20
0.1968503937007874
 30
0.0
 11
9.05511811023622
 21
0.3937007874015748
 31
0.0
  0
LINE
  5
17A
330
158
100
AcDbEntity
  8
CONTINUOUS
100
AcDbLine
 10
9.448818897637794
 20
0.1968503937007874
 30
0.0
 11
9.448818897637794
 21
0.3937007874015748
 31
0.0
  0
LINE
  5
17B
330
158
100
AcDbEntity
  8
CONTINUOUS
100
AcDbLine
 10
9.84251968503937
 20
0.1968503937007874
 30
0.0
 11
9.84251968503937
 21
0.3937007874015748
 31
0.0
  0
LINE
  5
17C
330
158
100
AcDbEntity
  8
CONTINUOUS
100
AcDbLine
 10
9.448818897637794
 20
0.3937007874015748
 30
0.0
 11
9.448818897637794
 21
1.574803149606299
 31
0.0
  0
LINE
  5
17D
330
158
100
AcDbEntity
  8
CONTINUOUS
100
AcDbLine
 10
9.448818897637794
 20
1.574803149606299
 30
0.0
 11
9.448818897637794
 21
1.811023622047244
 31
0.0
  0
LINE
  5
17E
330
158
100
AcDbEntity
  8
CONTINUOUS
100
AcDbLine
 10
10.70866141732284
 20
1.181102362204724
 30
0.0
 11
10.70866141732284
 21
1.574803149606299
 31
0.0
  0
LINE
  5
17F
330
158
100
AcDbEntity
  8
CONTINUOUS
100
AcDbLine
 10
10.03937007874016
 20
1.574803149606299
 30
0.0
 11
10.03937007874016
 21
1.811023622047244
 31
0.0
  0
LINE
  5
180
330
158
100
AcDbEntity
  8
CONTINUOUS
100
AcDbLine
 10
10.70866141732284
 20
1.574803149606299
 30
0.0
 11
10.70866141732284
 21
1.811023622047244
 31
0.0
  0
LINE
  5
181
330
158
100
AcDbEntity
  8
CONTINUOUS
100
AcDbLine
 10
12.20472440944882
 20
0.1968503937007874
 30
0.0
 11
12.20472440944882
 21
0.3937007874015748
 31
0.0
  0
LINE
  5
182
330
158
100
AcDbEntity
  8
CONTINUOUS
100
AcDbLine
 10
11.69291338582677
 20
1.181102362204724
 30
0.0
 11
11.69291338582677
 21
1.574803149606299
 31
0.0
  0
LINE
  5
183
330
158
100
AcDbEntity
  8
CONTINUOUS
100
AcDbLine
 10
13.18897637795276
 20
1.181102362204724
 30
0.0
 11
13.18897637795276
 21
1.574803149606299
 31
0.0
  0
LINE
  5
184
330
158
100
AcDbEntity
  8
CONTINUOUS
100
AcDbLine
 10
12.40157480314961
 20
0.3937007874015748
 30
0.0
 11
12.40157480314961
 21
1.181102362204724
 31
0.0
  0
LINE
  5
185
330
158
100
AcDbEntity
  8
CONTINUOUS
100
AcDbLine
 10
14.17322834645669
 20
0.1968503937007874
 30
0.0
 11
14.17322834645669
 21
0.3937007874015748
 31
0.0
  0
LINE
  5
186
330
158
100
AcDbEntity
  8
CONTINUOUS
100
AcDbLine
 10
14.17322834645669
 20
1.181102362204724
 30
0.0
 11
14.17322834645669
 21
1.574803149606299
 31
0.0
  0
LINE
  5
187
330
158
100
AcDbEntity
  8
CONTINUOUS
100
AcDbLine
 10
14.17322834645669
 20
1.574803149606299
 30
0.0
 11
14.17322834645669
 21
1.811023622047244
 31
0.0
  0
LINE
  5
188
330
158
100
AcDbEntity
  8
CONTINUOUS
100
AcDbLine
 10
15.35433070866142
 20
1.181102362204724
 30
0.0
 11
15.35433070866142
 21
1.574803149606299
 31
0.0
  0
LINE
  5
189
330
158
100
AcDbEntity
  8
CONTINUOUS
100
AcDbLine
 10
14.76377952755906
 20
0.3937007874015748
 30
0.0
 11
14.76377952755906
 21
0.7874015748031495
 31
0.0
  0
LINE
  5
18A
330
158
100
AcDbEntity
  8
CONTINUOUS
100
AcDbLine
 10
15.35433070866142
 20
0.3937007874015748
 30
0.0
 11
15.35433070866142
 21
0.7874015748031495
 31
0.0
  0
LINE
  5
18B
330
158
100
AcDbEntity
  8
CONTINUOUS
100
AcDbLine
 10
16.53543307086614
 20
0.0
 30
0.0
 11
16.53543307086614
 21
0.3937007874015748
 31
0.0
  0
LINE
  5
18C
330
158
100
AcDbEntity
  8
CONTINUOUS
100
AcDbLine
 10
16.53543307086614
 20
0.0
 30
0.0
 11
16.14173228346457
 21
0.0
 31
0.0
  0
LINE
  5
18D
330
158
100
AcDbEntity
  8
CONTINUOUS
100
AcDbLine
 10
16.33858267716536
 20
2.224409448818898
 30
0.0
 11
16.14173228346457
 21
2.224409448818898
 31
0.0
  0
LINE
  5
18E
330
158
100
AcDbEntity
  8
CONTINUOUS
100
AcDbLine
 10
16.33858267716536
 20
4.035433070866142
 30
0.0
 11
16.14173228346457
 21
4.035433070866142
 31
0.0
  0
LINE
  5
18F
330
158
100
AcDbEntity
  8
CONTINUOUS
100
AcDbLine
 10
9.448818897637794
 20
11.06299212598425
 30
0.0
 11
16.14173228346457
 21
11.06299212598425
 31
0.0
  0
LINE
  5
190
330
158
100
AcDbEntity
  8
CONTINUOUS
100
AcDbLine
 10
10.23622047244094
 20
11.2992125984252
 30
0.0
 11
10.23622047244094
 21
11.49606299212598
 31
0.0
  0
LINE
  5
191
330
158
100
AcDbEntity
  8
CONTINUOUS
100
AcDbLine
 10
9.448818897637794
 20
11.06299212598425
 30
0.0
 11
9.448818897637794
 21
11.2992125984252
 31
0.0
  0
LINE
  5
192
330
158
100
AcDbEntity
  8
CONTINUOUS
100
AcDbLine
 10
9.921259842519685
 20
11.06299212598425
 30
0.0
 11
9.921259842519685
 21
11.2992125984252
 31
0.0
  0
LINE
  5
193
330
158
100
AcDbEntity
  8
CONTINUOUS
100
AcDbLine
 10
12.20472440944882
 20
11.2992125984252
 30
0.0
 11
12.20472440944882
 21
11.49606299212598
 31
0.0
  0
LINE
  5
194
330
158
100
AcDbEntity
  8
CONTINUOUS
100
AcDbLine
 10
16.33858267716536
 20
7.65748031496063
 30
0.0
 11
16.14173228346457
 21
7.65748031496063
 31
0.0
  0
LINE
  5
195
330
158
100
AcDbEntity
  8
CONTINUOUS
100
AcDbLine
 10
16.33858267716536
 20
9.468503937007874
 30
0.0
 11
16.14173228346457
 21
9.468503937007874
 31
0.0
  0
LINE
  5
196
330
158
100
AcDbEntity
  8
CONTINUOUS
100
AcDbLine
 10
14.17322834645669
 20
11.2992125984252
 30
0.0
 11
14.17322834645669
 21
11.49606299212598
 31
0.0
  0
LINE
  5
197
330
158
100
AcDbEntity
  8
CONTINUOUS
100
AcDbLine
 10
14.21259842519685
 20
11.06299212598425
 30
0.0
 11
14.21259842519685
 21
11.2992125984252
 31
0.0
  0
LINE
  5
198
330
158
100
AcDbEntity
  8
CONTINUOUS
100
AcDbLine
 10
15.0
 20
11.06299212598425
 30
0.0
 11
15.0
 21
11.2992125984252
 31
0.0
  0
LINE
  5
199
330
158
100
AcDbEntity
  8
CONTINUOUS
100
AcDbLine
 10
15.59055118110236
 20
11.06299212598425
 30
0.0
 11
15.59055118110236
 21
11.2992125984252
 31
0.0
  0
LINE
  5
19A
330
158
100
AcDbEntity
  8
CONTINUOUS
100
AcDbLine
 10
16.53543307086614
 20
11.2992125984252
 30
0.0
 11
16.53543307086614
 21
11.69291338582677
 31
0.0
  0
LINE
  5
19B
330
158
100
AcDbEntity
  8
CONTINUOUS
100
AcDbLine
 10
16.53543307086614
 20
11.69291338582677
 30
0.0
 11
16.14173228346457
 21
11.69291338582677
 31
0.0
  0
LINE
  5
19C
330
158
100
AcDbEntity
  8
CONTINUOUS
100
AcDbLine
 10
0.1968503937007874
 20
5.846456692913386
 30
0.0
 11
0.3937007874015748
 21
5.846456692913386
 31
0.0
  0
LINE
  5
19D
330
158
100
AcDbEntity
  8
CONTINUOUS
100
AcDbLine
 10
8.26771653543307
 20
11.2992125984252
 30
0.0
 11
8.26771653543307
 21
11.49606299212598
 31
0.0
  0
LINE
  5
19E
330
158
100
AcDbEntity
  8
CONTINUOUS
100
AcDbLine
 10
16.14173228346457
 20
5.846456692913386
 30
0.0
 11
16.33858267716536
 21
5.846456692913386
 31
0.0
  0
MTEXT
  5
19F
330
158
100
AcDbEntity
  8
CONTINUOUS
100
AcDbMText
 10
11.7613188976378
 20
1.455118110236221
 30
0.0
 40
0.099537037037037
 41
0.0
 71
     4
 72
     1
  1
{\fArial|b0|i0|c0|p0;\C7;Approved by - date}{\fArial|b0|i0|c0|p0;\C7;}
 73
     1
 44
1.0
  0
MTEXT
  5
1A0
330
158
100
AcDbEntity
  8
CONTINUOUS
100
AcDbMText
 10
15.09183537040169
 20
0.2446884484178437
 30
0.0
 40
0.169212962962963
 41
0.0
 71
     4
 72
     1
  1
{\fArial|b0|i0|c0|p0;\C7;8}{\fArial|b0|i0|c0|p0;\C7;}
 73
     1
 44
1.0
  0
MTEXT
  5
1A1
330
158
100
AcDbEntity
  8
CONTINUOUS
100
AcDbMText
 10
16.20455432801736
 20
3.109376078928551
 30
0.0
 40
0.169212962962963
 41
0.0
 71
     4
 72
     1
  1
{\fArial|b0|i0|c0|p0;\C7;E}{\fArial|b0|i0|c0|p0;\C7;}
 73
     1
 44
1.0
  0
MTEXT
  5
1A2
330
158
100
AcDbEntity
  8
CONTINUOUS
100
AcDbMText
 10
0.1972488876434862
 20
6.749448818897638
 30
0.0
 40
0.169212962962963
 41
0.0
 71
     4
 72
     1
  1
{\fArial|b0|i0|c0|p0;\C7;C}{\fArial|b0|i0|c0|p0;\C7;}
 73
     1
 44
1.0
  0
MTEXT
  5
1A3
330
158
100
AcDbEntity
  8
CONTINUOUS
100
AcDbMText
 10
5.240045562500984
 20
0.2419412986903968
 30
0.0
 40
0.169212962962963
 41
0.0
 71
     4
 72
     1
  1
{\fArial|b0|i0|c0|p0;\C7;3}{\fArial|b0|i0|c0|p0;\C7;}
 73
     1
 44
1.0
  0
MTEXT
  5
1A4
330
158
100
AcDbEntity
  8
CONTINUOUS
100
AcDbMText
 10
13.25738188976378
 20
1.455118110236221
 30
0.0
 40
0.099537037037037
 41
0.0
 71
     4
 72
     1
  1
{\fArial|b0|i0|c0|p0;\C7;File name}{\fArial|b0|i0|c0|p0;\C7;}
 73
     1
 44
1.0
  0
MTEXT
  5
1A5
330
158
100
AcDbEntity
  8
CONTINUOUS
100
AcDbMText
 10
15.42273622047244
 20
1.455118110236221
 30
0.0
 40
0.099537037037037
 41
0.0
 71
     4
 72
     1
  1
{\fArial|b0|i0|c0|p0;\C7;Scale}{\fArial|b0|i0|c0|p0;\C7;}
 73
     1
 44
1.0
  0
MTEXT
  5
1A6
330
158
100
AcDbEntity
  8
CONTINUOUS
100
AcDbMText
 10
15.00777787525311
 20
11.17562755674827
 30
0.0
 40
0.099537037037037
 41
0.0
 71
     4
 72
     1
  1
{\fArial|b0|i0|c0|p0;\C7;Signature}{\fArial|b0|i0|c0|p0;\C7;}
 73
     1
 44
1.0
  0
MTEXT
  5
1A7
330
158
100
AcDbEntity
  8
CONTINUOUS
100
AcDbMText
 10
9.98966535433071
 20
11.17952755905512
 30
0.0
 40
0.099537037037037
 41
0.0
 71
     4
 72
     1
  1
{\fArial|b0|i0|c0|p0;\C7;Revision note}{\fArial|b0|i0|c0|p0;\C7;}
 73
     1
 44
1.0
  0
MTEXT
  5
1A8
330
158
100
AcDbEntity
  8
CONTINUOUS
100
AcDbMText
 10
14.24163385826772
 20
1.455118110236221
 30
0.0
 40
0.099537037037037
 41
0.0
 71
     4
 72
     1
  1
{\fArial|b0|i0|c0|p0;\C7;Date}{\fArial|b0|i0|c0|p0;\C7;}
 73
     1
 44
1.0
  0
MTEXT
  5
1A9
330
158
100
AcDbEntity
  8
CONTINUOUS
100
AcDbMText
 10
9.477460245447835
 20
11.17779863012118
 30
0.0
 40
0.099537037037037
 41
0.0
 71
     4
 72
     1
  1
{\fArial|b0|i0|c0|p0;\C7;RevNo}{\fArial|b0|i0|c0|p0;\C7;}
 73
     1
 44
1.0
  0
MTEXT
  5
1AA
330
158
100
AcDbEntity
  8
CONTINUOUS
100
AcDbMText
 10
14.79875627652866
 20
0.6677165354330709
 30
0.0
 40
0.099537037037037
 41
0.0
 71
     4
 72
     1
  1
{\fArial|b0|i0|c0|p0;\C7;Edition}{\fArial|b0|i0|c0|p0;\C7;}
 73
     1
 44
1.0
  0
MTEXT
  5
1AB
330
158
100
AcDbEntity
  8
CONTINUOUS
100
AcDbMText
 10
15.42273622047244
 20
0.6677165354330709
 30
0.0
 40
0.099537037037037
 41
0.0
 71
     4
 72
     1
  1
{\fArial|b0|i0|c0|p0;\C7;Sheet}{\fArial|b0|i0|c0|p0;\C7;}
 73
     1
 44
1.0
  0
MTEXT
  5
1AC
330
158
100
AcDbEntity
  8
CONTINUOUS
100
AcDbMText
 10
13.12933883066252
 20
0.2326715325182819
 30
0.0
 40
0.169212962962963
 41
0.0
 71
     4
 72
     1
  1
{\fArial|b0|i0|c0|p0;\C7;7}{\fArial|b0|i0|c0|p0;\C7;}
 73
     1
 44
1.0
  0
MTEXT
  5
1AD
330
158
100
AcDbEntity
  8
CONTINUOUS
100
AcDbMText
 10
16.22258012426181
 20
1.316377952755905
 30
0.0
 40
0.169212962962963
 41
0.0
 71
     4
 72
     1
  1
{\fArial|b0|i0|c0|p0;\C7;F}{\fArial|b0|i0|c0|p0;\C7;}
 73
     1
 44
1.0
  0
MTEXT
  5
1AE
330
158
100
AcDbEntity
  8
CONTINUOUS
100
AcDbMText
 10
13.12113633043185
 20
11.41800268939162
 30
0.0
 40
0.169212962962963
 41
0.0
 71
     4
 72
     1
  1
{\fArial|b0|i0|c0|p0;\C7;7}{\fArial|b0|i0|c0|p0;\C7;}
 73
     1
 44
1.0
  0
MTEXT
  5
1AF
330
158
100
AcDbEntity
  8
CONTINUOUS
100
AcDbMText
 10
9.50273528812437
 20
1.29070912759135
 30
0.0
 40
0.0895833333333333
 41
0.0
 71
     4
 72
     1
  1
{\fArial|b0|i0|c0|p0;\C7;Rajagopalan}{\fArial|b0|i0|c0|p0;\C7;}
 73
     1
 44
1.0
  0
MTEXT
  5
1B0
330
158
100
AcDbEntity
  8
CONTINUOUS
100
AcDbMText
 10
15.62285409127976
 20
11.17952755905512
 30
0.0
 40
0.099537037037037
 41
0.0
 71
     4
 72
     1
  1
{\fArial|b0|i0|c0|p0;\C7;Checked}{\fArial|b0|i0|c0|p0;\C7;}
 73
     1
 44
1.0
  0
MTEXT
  5
1B1
330
158
100
AcDbEntity
  8
CONTINUOUS
100
AcDbMText
 10
9.177053436516731
 20
11.42507770929098
 30
0.0
 40
0.169212962962963
 41
0.0
 71
     4
 72
     1
  1
{\fArial|b0|i0|c0|p0;\C7;5}{\fArial|b0|i0|c0|p0;\C7;}
 73
     1
 44
1.0
  0
MTEXT
  5
1B2
330
158
100
AcDbEntity
  8
CONTINUOUS
100
AcDbMText
 10
0.2236220472440945
 20
1.316377952755905
 30
0.0
 40
0.169212962962963
 41
0.0
 71
     4
 72
     1
  1
{\fArial|b0|i0|c0|p0;\C7;F}{\fArial|b0|i0|c0|p0;\C7;}
 73
     1
 44
1.0
  0
MTEXT
  5
1B3
330
158
100
AcDbEntity
  8
CONTINUOUS
100
AcDbMText
 10
16.20544438399669
 20
10.35712636872539
 30
0.0
 40
0.169212962962963
 41
0.0
 71
     4
 72
     1
  1
{\fArial|b0|i0|c0|p0;\C7;A}{\fArial|b0|i0|c0|p0;\C7;}
 73
     1
 44
1.0
  0
MTEXT
  5
1B4
330
158
100
AcDbEntity
  8
CONTINUOUS
100
AcDbMText
 10
12.47787235290047
 20
0.5686527537548621
 30
0.0
 40
0.0895833333333333
 41
0.0
 71
     4
 72
     1
  1
{\fArial|b0|i0|c0|p0;\C7;CRP103-00}{\fArial|b0|i0|c0|p0;\C7;}
 73
     1
 44
1.0
  0
MTEXT
  5
1B5
330
158
100
AcDbEntity
  8
CONTINUOUS
100
AcDbMText
 10
14.24163385826772
 20
1.691338582677165
 30
0.0
 40
0.099537037037037
 41
0.0
 71
     4
 72
     1
  1
{\fArial|b0|i0|c0|p0;\C7;Article No./Reference}{\fArial|b0|i0|c0|p0;\C7;}
 73
     1
 44
1.0
  0
MTEXT
  5
1B6
330
158
100
AcDbEntity
  8
CONTINUOUS
100
AcDbMText
 10
0.2116051125714158
 20
3.115384677676705
 30
0.0
 40
0.169212962962963
 41
0.0
 71
     4
 72
     1
  1
{\fArial|b0|i0|c0|p0;\C7;E}{\fArial|b0|i0|c0|p0;\C7;}
 73
     1
 44
1.0
  0
MTEXT
  5
1B7
330
158
100
AcDbEntity
  8
CONTINUOUS
100
AcDbMText
 10
3.279701486829122
 20
11.42167837453843
 30
0.0
 40
0.169212962962963
 41
0.0
 71
     4
 72
     1
  1
{\fArial|b0|i0|c0|p0;\C7;2}{\fArial|b0|i0|c0|p0;\C7;}
 73
     1
 44
1.0
  0
MTEXT
  5
1B8
330
158
100
AcDbEntity
  8
CONTINUOUS
100
AcDbMText
 10
0.2097395829328402
 20
8.572489037701457
 30
0.0
 40
0.169212962962963
 41
0.0
 71
     4
 72
     1
  1
{\fArial|b0|i0|c0|p0;\C7;B}{\fArial|b0|i0|c0|p0;\C7;}
 73
     1
 44
1.0
  0
MTEXT
  5
1B9
330
158
100
AcDbEntity
  8
CONTINUOUS
100
AcDbMText
 10
16.20221614537598
 20
6.743440820889212
 30
0.0
 40
0.169212962962963
 41
0.0
 71
     4
 72
     1
  1
{\fArial|b0|i0|c0|p0;\C7;C}{\fArial|b0|i0|c0|p0;\C7;}
 73
     1
 44
1.0
  0
MTEXT
  5
1BA
330
158
100
AcDbEntity
  8
CONTINUOUS
100
AcDbMText
 10
16.2162301116063
 20
4.926408600093819
 30
0.0
 40
0.169212962962963
 41
0.0
 71
     4
 72
     1
  1
{\fArial|b0|i0|c0|p0;\C7;D}{\fArial|b0|i0|c0|p0;\C7;}
 73
     1
 44
1.0
  0
MTEXT
  5
1BB
330
158
100
AcDbEntity
  8
CONTINUOUS
100
AcDbMText
 10
14.22952606922059
 20
1.284023344986083
 30
0.0
 40
0.0895833333333333
 41
0.0
 71
     4
 72
     1
  1
{\fArial|b0|i0|c0|p0;\C7;08-Jul-2009}{\fArial|b0|i0|c0|p0;\C7;}
 73
     1
 44
1.0
  0
MTEXT
  5
1BC
330
158
100
AcDbEntity
  8
CONTINUOUS
100
AcDbMText
 10
9.517224409448819
 20
1.455118110236221
 30
0.0
 40
0.099537037037037
 41
0.0
 71
     4
 72
     1
  1
{\fArial|b0|i0|c0|p0;\C7;Drawn by}{\fArial|b0|i0|c0|p0;\C7;}
 73
     1
 44
1.0
  0
MTEXT
  5
1BD
330
158
100
AcDbEntity
  8
CONTINUOUS
100
AcDbMText
 10
7.203937007874015
 20
11.42562968096394
 30
0.0
 40
0.169212962962963
 41
0.0
 71
     4
 72
     1
  1
{\fArial|b0|i0|c0|p0;\C7;4}{\fArial|b0|i0|c0|p0;\C7;}
 73
     1
 44
1.0
  0
MTEXT
  5
1BE
330
158
100
AcDbEntity
  8
CONTINUOUS
100
AcDbMText
 10
11.15343839503598
 20
11.42590916968209
 30
0.0
 40
0.169212962962963
 41
0.0
 71
     4
 72
     1
  1
{\fArial|b0|i0|c0|p0;\C7;6}{\fArial|b0|i0|c0|p0;\C7;}
 73
     1
 44
1.0
  0
MTEXT
  5
1BF
330
158
100
AcDbEntity
  8
CONTINUOUS
100
AcDbMText
 10
0.1778315664276362
 20
10.36548746424398
 30
0.0
 40
0.169212962962963
 41
0.0
 71
     4
 72
     1
  1
{\fArial|b0|i0|c0|p0;\C7;A}{\fArial|b0|i0|c0|p0;\C7;}
 73
     1
 44
1.0
  0
MTEXT
  5
1C0
330
158
100
AcDbEntity
  8
CONTINUOUS
100
AcDbMText
 10
9.517224409448819
 20
1.691338582677165
 30
0.0
 40
0.099537037037037
 41
0.0
 71
     4
 72
     1
  1
{\fArial|b0|i0|c0|p0;\C7;Itemref}{\fArial|b0|i0|c0|p0;\C7;}
 73
     1
 44
1.0
  0
MTEXT
  5
1C1
330
158
100
AcDbEntity
  8
CONTINUOUS
100
AcDbMText
 10
0.1932380150583146
 20
4.926407999354095
 30
0.0
 40
0.169212962962963
 41
0.0
 71
     4
 72
     1
  1
{\fArial|b0|i0|c0|p0;\C7;D}{\fArial|b0|i0|c0|p0;\C7;}
 73
     1
 44
1.0
  0
MTEXT
  5
1C2
330
158
100
AcDbEntity
  8
CONTINUOUS
100
AcDbMText
 10
1.322047244094488
 20
0.2386797558041071
 30
0.0
 40
0.169212962962963
 41
0.0
 71
     4
 72
     1
  1
{\fArial|b0|i0|c0|p0;\C7;1}{\fArial|b0|i0|c0|p0;\C7;}
 73
     1
 44
1.0
  0
MTEXT
  5
1C3
330
158
100
AcDbEntity
  8
CONTINUOUS
100
AcDbMText
 10
5.255301347864843
 20
11.4212642135048
 30
0.0
 40
0.169212962962963
 41
0.0
 71
     4
 72
     1
  1
{\fArial|b0|i0|c0|p0;\C7;3}{\fArial|b0|i0|c0|p0;\C7;}
 73
     1
 44
1.0
  0
MTEXT
  5
1C4
330
158
100
AcDbEntity
  8
CONTINUOUS
100
AcDbMText
 10
3.278082192895343
 20
0.2467441637986531
 30
0.0
 40
0.169212962962963
 41
0.0
 71
     4
 72
     1
  1
{\fArial|b0|i0|c0|p0;\C7;2}{\fArial|b0|i0|c0|p0;\C7;}
 73
     1
 44
1.0
  0
MTEXT
  5
1C5
330
158
100
AcDbEntity
  8
CONTINUOUS
100
AcDbMText
 10
14.28100393700787
 20
11.17952755905512
 30
0.0
 40
0.099537037037037
 41
0.0
 71
     4
 72
     1
  1
{\fArial|b0|i0|c0|p0;\C7;Date}{\fArial|b0|i0|c0|p0;\C7;}
 73
     1
 44
1.0
  0
MTEXT
  5
1C6
330
158
100
AcDbEntity
  8
CONTINUOUS
100
AcDbMText
 10
15.08964146891917
 20
11.42563088244339
 30
0.0
 40
0.169212962962963
 41
0.0
 71
     4
 72
     1
  1
{\fArial|b0|i0|c0|p0;\C7;8}{\fArial|b0|i0|c0|p0;\C7;}
 73
     1
 44
1.0
  0
MTEXT
  5
1C7
330
158
100
AcDbEntity
  8
CONTINUOUS
100
AcDbMText
 10
10.77706692913386
 20
1.691338582677165
 30
0.0
 40
0.099537037037037
 41
0.0
 71
     4
 72
     1
  1
{\fArial|b0|i0|c0|p0;\C7;Title/Name, designation, material, dimension etc}{\fArial|b0|i0|c0|p0;\C7;}
 73
     1
 44
1.0
  0
MTEXT
  5
1C8
330
158
100
AcDbEntity
  8
CONTINUOUS
100
AcDbMText
 10
1.318233297753524
 20
11.43325787401575
 30
0.0
 40
0.169212962962963
 41
0.0
 71
     4
 72
     1
  1
{\fArial|b0|i0|c0|p0;\C7;1}{\fArial|b0|i0|c0|p0;\C7;}
 73
     1
 44
1.0
  0
MTEXT
  5
1C9
330
158
100
AcDbEntity
  8
CONTINUOUS
100
AcDbMText
 10
16.20852930264209
 20
8.550893045260198
 30
0.0
 40
0.169212962962963
 41
0.0
 71
     4
 72
     1
  1
{\fArial|b0|i0|c0|p0;\C7;B}{\fArial|b0|i0|c0|p0;\C7;}
 73
     1
 44
1.0
  0
MTEXT
  5
1CA
330
158
100
AcDbEntity
  8
CONTINUOUS
100
AcDbMText
 10
10.77706692913386
 20
1.455118110236221
 30
0.0
 40
0.099537037037037
 41
0.0
 71
     4
 72
     1
  1
{\fArial|b0|i0|c0|p0;\C7;Checked by}{\fArial|b0|i0|c0|p0;\C7;}
 73
     1
 44
1.0
  0
MTEXT
  5
1CB
330
158
100
AcDbEntity
  8
CONTINUOUS
100
AcDbMText
 10
10.10777559055118
 20
1.691338582677165
 30
0.0
 40
0.099537037037037
 41
0.0
 71
     4
 72
     1
  1
{\fArial|b0|i0|c0|p0;\C7;Quantity}{\fArial|b0|i0|c0|p0;\C7;}
 73
     1
 44
1.0
  0
MTEXT
  5
1CC
330
158
100
AcDbEntity
  8
CONTINUOUS
100
AcDbMText
 10
11.14361630050165
 20
0.241154422576713
 30
0.0
 40
0.169212962962963
 41
0.0
 71
     4
 72
     1
  1
{\fArial|b0|i0|c0|p0;\C7;6}{\fArial|b0|i0|c0|p0;\C7;}
 73
     1
 44
1.0
  0
ENDBLK
  5
15A
330
158
100
AcDbEntity
  8
0
100
AcDbBlockEnd
  0
ENDSEC
  0
SECTION
  2
ENTITIES
  0
CIRCLE
  5
5E
330
1F
100
AcDbEntity
  8
VISIBLE
100
AcDbCircle
 10
8.704452034056654
 20
5.811010045329408
 30
0.0
 40
0.1010000000000009
  0
CIRCLE
  5
5F
330
1F
100
AcDbEntity
  8
VISIBLE
100
AcDbCircle
 10
6.454452034056654
 20
5.811010045329409
 30
0.0
 40
0.101
  0
CIRCLE
  5
60
330
1F
100
AcDbEntity
  8
VISIBLE
100
AcDbCircle
 10
6.454452034056654
 20
5.811010045329409
 30
0.0
 40
0.1399999999999997
  0
LINE
  5
61
330
1F
100
AcDbEntity
  8
VISIBLE
100
AcDbLine
 10
9.079452034056654
 20
6.561010045329409
 30
0.0
 11
9.079452034056654
 21
5.061010045329409
 31
0.0
  0
CIRCLE
  5
62
330
1F
100
AcDbEntity
  8
VISIBLE
100
AcDbCircle
 10
7.579452034056654
 20
5.811010045329409
 30
0.0
 40
0.2880000000000003
  0
CIRCLE
  5
63
330
1F
100
AcDbEntity
  8
VISIBLE
100
AcDbCircle
 10
8.704452034056654
 20
5.811010045329409
 30
0.0
 40
0.1400000000000006
  0
LINE
  5
64
330
1F
100
AcDbEntity
  8
VISIBLE
100
AcDbLine
 10
9.079452034056654
 20
5.061010045329409
 30
0.0
 11
6.079452034056654
 21
5.061010045329409
 31
0.0
  0
LINE
  5
65
330
1F
100
AcDbEntity
  8
VISIBLE
100
AcDbLine
 10
6.079452034056654
 20
5.061010045329409
 30
0.0
 11
6.079452034056654
 21
6.561010045329409
 31
0.0
  0
LINE
  5
66
330
1F
100
AcDbEntity
  8
VISIBLE
100
AcDbLine
 10
6.079452034056654
 20
6.561010045329409
 30
0.0
 11
9.079452034056654
 21
6.561010045329409
 31
0.0
  0
CIRCLE
  5
67
330
1F
100
AcDbEntity
  8
VISIBLE
100
AcDbCircle
 10
7.579452034056654
 20
5.811010045329409
 30
0.0
 40
0.25
  0
DIMENSION
  5
69
330
1F
100
AcDbEntity
  8
DIMENSIONS
100
AcDbDimension
  2
D1
 10
0.0
 20
0.0
 30
0.0
 11
15.15890406811331
 21
13.25958468219425
 31
0.0
 70
    32
  1
<>
 71
     5
 42
-1.0
 53
180.0
  3
Standard
100
AcDbAlignedDimension
 13
6.079452034056654
 23
6.561010045329409
 33
0.0
 14
9.079452034056654
 24
6.561010045329409
 34
0.0
 50
180.0
100
AcDbRotatedDimension
1001
ACAD
1000
DSTYLE
1002
{
1070
    76
1070
     0
1070
    75
1070
     0
1070
   282
1070
     0
1070
   281
1070
     0
1070
    77
1070
     1
1070
    79
1070
     0
1070
    78
1070
     0
1070
   272
1070
     3
1070
   271
1070
     3
1070
   179
1070
     3
1070
   140
1040
0.0895833333333333
1070
    71
1070
     0
1070
    72
1070
     0
1070
    48
1040
0.0000787401574803
1070
    47
1040
0.0001968503937008
1002
}
  0
DIMENSION
  5
77
330
1F
100
AcDbEntity
  8
DIMENSIONS
100
AcDbDimension
  2
D2
 10
0.0
 20
0.0
 30
0.0
 11
15.05411163089782
 21
10.06901538278174
 31
0.0
 70
    32
  1
<>
 71
     5
 42
-1.0
  3
Standard
100
AcDbAlignedDimension
 13
6.454452034056654
 23
5.811010045329409
 33
0.0
 14
8.704452034056654
 24
5.811010045329409
 34
0.0
100
AcDbRotatedDimension
1001
ACAD
1000
DSTYLE
1002
{
1070
    76
1070
     0
1070
    75
1070
     0
1070
   282
1070
     0
1070
   281
1070
     0
1070
    77
1070
     1
1070
    79
1070
     0
1070
    78
1070
     0
1070
   272
1070
     3
1070
   271
1070
     3
1070
   179
1070
     3
1070
   140
1040
0.0895833333333333
1070
    71
1070
     0
1070
    72
1070
     0
1070
    48
1040
0.0000787401574803
1070
    47
1040
0.0001968503937008
1002
}
  0
DIMENSION
  5
85
330
1F
100
AcDbEntity
  8
DIMENSIONS
100
AcDbDimension
  2
D3
 10
0.0
 20
0.0
 30
0.0
 11
13.23755339374692
 21
10.06901538278174
 31
0.0
 70
    32
  1
<>
 71
     5
 42
-1.0
 53
180.0
  3
Standard
100
AcDbAlignedDimension
 13
6.079452034056654
 23
5.061010045329409
 33
0.0
 14
6.454452034056654
 24
5.811010045329409
 34
0.0
 50
180.0
100
AcDbRotatedDimension
1001
ACAD
1000
DSTYLE
1002
{
1070
    76
1070
     0
1070
    75
1070
     0
1070
   282
1070
     0
1070
   281
1070
     0
1070
    77
1070
     1
1070
    79
1070
     0
1070
    78
1070
     0
1070
   272
1070
     3
1070
   271
1070
     3
1070
   179
1070
     3
1070
   140
1040
0.0895833333333333
1070
    71
1070
     0
1070
    72
1070
     0
1070
    48
1040
0.0000787401574803
1070
    47
1040
0.0001968503937008
1002
}
  0
DIMENSION
  5
93
330
1F
100
AcDbEntity
  8
DIMENSIONS
100
AcDbDimension
  2
D4
 10
0.0
 20
0.0
 30
0.0
 11
17.16350164939099
 21
11.29044059693343
 31
0.0
 70
    32
  1
<>
 71
     5
 42
-1.0
 53
270.0
  3
Standard
100
AcDbAlignedDimension
 13
6.079452034056654
 23
5.061010045329409
 33
0.0
 14
6.454452034056654
 24
5.811010045329409
 34
0.0
 50
270.0
100
AcDbRotatedDimension
1001
ACAD
1000
DSTYLE
1002
{
1070
    76
1070
     0
1070
    75
1070
     0
1070
   282
1070
     0
1070
   281
1070
     0
1070
    77
1070
     1
1070
    79
1070
     0
1070
    78
1070
     0
1070
   272
1070
     3
1070
   271
1070
     3
1070
   179
1070
     3
1070
   140
1040
0.0895833333333333
1070
    71
1070
     0
1070
    72
1070
     0
1070
    48
1040
0.0000787401574803
1070
    47
1040
0.0001968503937008
1002
}
  0
DIMENSION
  5
A1
330
1F
100
AcDbEntity
  8
DIMENSIONS
100
AcDbDimension
  2
D5
 10
0.0
 20
0.0
 30
0.0
 11
14.38865661621093
 21
12.79435165285125
 31
0.0
 70
    32
  1
<>
 71
     5
 42
-1.0
 53
180.0
  3
Standard
100
AcDbAlignedDimension
 13
7.579452034056654
 23
5.811010045329409
 33
0.0
 14
6.079452034056654
 24
6.561010045329409
 34
0.0
 50
180.0
100
AcDbRotatedDimension
1001
ACAD
1000
DSTYLE
1002
{
1070
    76
1070
     0
1070
    75
1070
     0
1070
   282
1070
     0
1070
   281
1070
     0
1070
    77
1070
     1
1070
    79
1070
     0
1070
    78
1070
     0
1070
   272
1070
     3
1070
   271
1070
     3
1070
   179
1070
     3
1070
   140
1040
0.0895833333333333
1070
    71
1070
     0
1070
    72
1070
     0
1070
    48
1040
0.0000787401574803
1070
    47
1040
0.0001968503937008
1002
}
  0
DIMENSION
  5
AF
330
1F
100
AcDbEntity
  8
DIMENSIONS
100
AcDbDimension
  2
D6
 10
0.0
 20
0.0
 30
0.0
 11
17.80034523310624
 21
11.8569802111528
 31
0.0
 70
    32
  1
2X FOR <>- 20 TPI
 71
     5
 42
-1.0
  3
Standard
100
AcDbAlignedDimension
 13
8.605457084690538
 23
5.910004994695527
 33
0.0
 14
8.80344698342277
 24
5.712015095963292
 34
0.0
100
AcDbRotatedDimension
1001
ACAD
1000
DSTYLE
1002
{
1070
    76
1070
     0
1070
    75
1070
     0
1070
   282
1070
     0
1070
   281
1070
     0
1070
    77
1070
     1
1070
    79
1070
     0
1070
    78
1070
     0
1070
   272
1070
     3
1070
   271
1070
     3
1070
   179
1070
     3
1070
   140
1040
0.0895833333333333
1070
    71
1070
     0
1070
    72
1070
     0
1070
    48
1040
0.0000787401574803
1070
    47
1040
0.0001968503937008
1002
}
  0
DIMENSION
  5
BD
330
1F
100
AcDbEntity
  8
DIMENSIONS
100
AcDbDimension
  2
D7
 10
0.0
 20
0.0
 30
0.0
 11
15.75816237081693
 21
10.51509346548966
 31
0.0
 70
    32
  1
<>
 71
     5
 42
-1.0
  3
Standard
100
AcDbAlignedDimension
 13
7.867452034056654
 23
5.811010045329409
 33
0.0
 14
7.291452034056654
 24
5.811010045329409
 34
0.0
100
AcDbRotatedDimension
1001
ACAD
1000
DSTYLE
1002
{
1070
    76
1070
     0
1070
    75
1070
     0
1070
   282
1070
     0
1070
   281
1070
     0
1070
    77
1070
     1
1070
    79
1070
     0
1070
    78
1070
     0
1070
   272
1070
     3
1070
   271
1070
     3
1070
   179
1070
     3
1070
   140
1040
0.0895833333333333
1070
    71
1070
     0
1070
    72
1070
     0
1070
    48
1040
0.0000787401574803
1070
    47
1040
0.0001968503937008
1002
}
  0
LINE
  5
CB
330
1F
100
AcDbEntity
  8
VISIBLE
100
AcDbLine
 10
3.949338807834409
 20
6.561010045329409
 30
0.0
 11
3.949338807834409
 21
5.061010045329409
 31
0.0
  0
LINE
  5
CC
330
1F
100
AcDbEntity
  8
VISIBLE
100
AcDbLine
 10
4.699338807834409
 20
5.061010045329409
 30
0.0
 11
4.699338807834409
 21
6.561010045329409
 31
0.0
  0
LINE
  5
CD
330
1F
100
AcDbEntity
  8
VISIBLE
100
AcDbLine
 10
4.699338807834409
 20
5.061010045329409
 30
0.0
 11
3.949338807834409
 21
5.061010045329409
 31
0.0
  0
LINE
  5
CE
330
1F
100
AcDbEntity
  8
VISIBLE
100
AcDbLine
 10
4.699338807834409
 20
6.561010045329409
 30
0.0
 11
3.949338807834409
 21
6.561010045329409
 31
0.0
  0
LINE
  5
CF
330
1F
100
AcDbEntity
  8
VISIBLE
100
AcDbLine
 10
3.824338807834409
 20
6.561010045329409
 30
0.0
 11
3.824338807834409
 21
5.061010045329409
 31
0.0
  0
LINE
  5
D0
330
1F
100
AcDbEntity
  8
VISIBLE
100
AcDbLine
 10
3.824338807834409
 20
5.061010045329409
 30
0.0
 11
3.949338807834409
 21
5.061010045329409
 31
0.0
  0
LINE
  5
D1
330
1F
100
AcDbEntity
  8
VISIBLE
100
AcDbLine
 10
3.949338807834409
 20
5.061010045329409
 30
0.0
 11
3.949338807834409
 21
6.561010045329409
 31
0.0
  0
LINE
  5
D2
330
1F
100
AcDbEntity
  8
VISIBLE
100
AcDbLine
 10
3.824338807834409
 20
6.561010045329409
 30
0.0
 11
3.949338807834409
 21
6.561010045329409
 31
0.0
  0
DIMENSION
  5
D3
330
1F
100
AcDbEntity
  8
DIMENSIONS
100
AcDbDimension
  2
D8
 10
0.0
 20
0.0
 30
0.0
 11
7.928342113344677
 21
11.62202009065882
 31
0.0
 70
    32
  1
<>
 71
     5
 42
-1.0
 53
90.0
  3
Standard
100
AcDbAlignedDimension
 13
3.824338807834409
 23
6.561010045329409
 33
0.0
 14
3.824338807834409
 24
5.061010045329409
 34
0.0
 50
90.0
100
AcDbRotatedDimension
1001
ACAD
1000
DSTYLE
1002
{
1070
    76
1070
     0
1070
    75
1070
     0
1070
   282
1070
     0
1070
   281
1070
     0
1070
    77
1070
     1
1070
    79
1070
     0
1070
    78
1070
     0
1070
   272
1070
     3
1070
   271
1070
     3
1070
   179
1070
     3
1070
   140
1040
0.0895833333333333
1070
    71
1070
     0
1070
    72
1070
     0
1070
    48
1040
0.0000787401574803
1070
    47
1040
0.0001968503937008
1002
}
  0
DIMENSION
  5
E1
330
1F
100
AcDbEntity
  8
DIMENSIONS
100
AcDbDimension
  2
D9
 10
0.0
 20
0.0
 30
0.0
 11
8.961177615668818
 21
12.91199187030941
 31
0.0
 70
    32
  1
<>
 71
     5
 42
-1.0
 53
180.0
  3
Standard
100
AcDbAlignedDimension
 13
4.699338807834409
 23
6.561010045329409
 33
0.0
 14
3.824338807834409
 24
6.561010045329409
 34
0.0
 50
180.0
100
AcDbRotatedDimension
1001
ACAD
1000
DSTYLE
1002
{
1070
    76
1070
     0
1070
    75
1070
     0
1070
   282
1070
     0
1070
   281
1070
     0
1070
    77
1070
     1
1070
    79
1070
     0
1070
    78
1070
     0
1070
   272
1070
     3
1070
   271
1070
     3
1070
   179
1070
     3
1070
   140
1040
0.0895833333333333
1070
    71
1070
     0
1070
    72
1070
     0
1070
    48
1040
0.0000787401574803
1070
    47
1040
0.0001968503937008
1002
}
  0
ELLIPSE
  5
EF
330
1F
100
AcDbEntity
  8
VISIBLE
100
AcDbEllipse
 10
13.57957626983939
 20
8.594782341241103
 30
0.0
 11
-0.1620000908297037
 21
0.0
 31
0.0
210
0.0
220
0.0
230
1.0
 40
0.5773501351057624
 41
-3.141592421349801
 42
-2.356194606312269
  0
ELLIPSE
  5
F0
330
1F
100
AcDbEntity
  8
VISIBLE
100
AcDbEllipse
 10
13.57957636066909
 20
8.59478236296269
 30
0.0
 11
0.1620000000000008
 21
0.0
 31
0.0
210
0.0
220
0.0
230
1.0
 40
0.5773502691896202
 41
3.141592653589793
 42
6.283185307179586
  0
ELLIPSE
  5
F1
330
1F
100
AcDbEntity
  8
VISIBLE
100
AcDbEllipse
 10
13.57957636066909
 20
8.59478236296269
 30
0.0
 11
-0.1620000000000008
 21
0.0
 31
0.0
210
0.0
220
0.0
230
1.0
 40
0.5773502691896312
 41
-2.356194490192357
 42
0.0
  0
LINE
  5
F2
330
1F
100
AcDbEntity
  8
VISIBLE
100
AcDbLine
 10
12.25375114594432
 20
9.666434125430332
 30
0.0
 11
11.7234210600544
 21
9.360247907582433
 31
0.0
  0
ELLIPSE
  5
F3
330
1F
100
AcDbEntity
  8
VISIBLE
100
AcDbEllipse
 10
12.51891622267321
 20
9.207154806737798
 30
0.0
 11
-0.1619999662160616
 21
0.0
 31
0.0
210
0.0
220
0.0
230
1.0
 40
0.5773503190618523
 41
3.141592567208418
 42
3.926990860177856
  0
ELLIPSE
  5
F4
330
1F
100
AcDbEntity
  8
VISIBLE
100
AcDbEllipse
 10
12.51891618888927
 20
9.207154798658484
 30
0.0
 11
0.161999999999999
 21
0.0
 31
0.0
210
0.0
220
0.0
230
1.0
 40
0.5773502691896375
 41
3.141592653589793
 42
6.283185307179586
  0
ELLIPSE
  5
F5
330
1F
100
AcDbEntity
  8
VISIBLE
100
AcDbEllipse
 10
12.51891618888927
 20
9.207154798658484
 30
0.0
 11
-0.161999999999999
 21
0.0
 31
0.0
210
0.0
220
0.0
230
1.0
 40
0.5773502691896265
 41
-2.356194490192347
 42
0.0
  0
LINE
  5
F6
330
1F
100
AcDbEntity
  8
VISIBLE
100
AcDbLine
 10
13.84474140361404
 20
8.135503036190842
 30
0.0
 11
13.84474140361404
 21
6.910758164799252
 31
0.0
  0
LINE
  5
F7
330
1F
100
AcDbEntity
  8
VISIBLE
100
AcDbLine
 10
14.37507148950395
 20
7.21694438264715
 30
0.0
 11
14.37507148950395
 21
8.44168925403874
 31
0.0
  0
LINE
  5
F8
330
1F
100
AcDbEntity
  8
VISIBLE
100
AcDbLine
 10
11.7234210600544
 20
9.360247907582433
 30
0.0
 11
13.84474140361404
 21
8.135503036190842
 31
0.0
  0
LINE
  5
F9
330
1F
100
AcDbEntity
  8
VISIBLE
100
AcDbLine
 10
14.37507148950395
 20
7.21694438264715
 30
0.0
 11
13.84474140361404
 21
6.910758164799252
 31
0.0
  0
LINE
  5
FA
330
1F
100
AcDbEntity
  8
VISIBLE
100
AcDbLine
 10
14.37507148950396
 20
8.44168925403874
 30
0.0
 11
13.84474140361405
 21
8.135503036190842
 31
0.0
  0
ELLIPSE
  5
FB
330
1F
100
AcDbEntity
  8
VISIBLE
100
AcDbEllipse
 10
13.57957636066909
 20
7.676223709418998
 30
0.0
 11
0.0505000000000031
 21
-0.0874685657822285
 31
0.0
210
0.0
220
0.0
230
1.0
 40
0.5773502691896393
 41
-2.483106267382758
 42
-0.6584863862071015
  0
ELLIPSE
  5
FC
330
1F
100
AcDbEntity
  8
VISIBLE
100
AcDbEllipse
 10
11.98858610299936
 20
8.59478236296269
 30
0.0
 11
0.05050000000000131
 21
-0.08746856578222759
 31
0.0
210
0.0
220
0.0
230
1.0
 40
0.5773502691896292
 41
-2.483106267382709
 42
-0.6584863862070949
  0
LINE
  5
FD
330
1F
100
AcDbEntity
  8
VISIBLE
100
AcDbLine
 10
14.37507148950396
 20
8.44168925403874
 30
0.0
 11
12.25375114594432
 21
9.666434125430332
 31
0.0
  0
ELLIPSE
  5
FE
330
1F
100
AcDbEntity
  8
VISIBLE
100
AcDbEllipse
 10
11.90019788822706
 20
8.54375118638506
 30
0.0
 11
-0.06999990604246698
 21
0.1212433937905857
 31
0.0
210
0.0
220
0.0
230
1.0
 40
0.5773505901841607
 41
3.141592097611042
 42
3.926991094977123
  0
ELLIPSE
  5
FF
330
1F
100
AcDbEntity
  8
VISIBLE
100
AcDbEllipse
 10
11.90019775535104
 20
8.543751326654707
 30
0.0
 11
0.07000000000000028
 21
-0.1212435565298229
 31
0.0
210
0.0
220
0.0
230
0.9999999999999998
 40
0.5773502691896235
 41
-3.141592653589782
 42
0.0
  0
ELLIPSE
  5
100
330
1F
100
AcDbEntity
  8
VISIBLE
100
AcDbEllipse
 10
11.90019775535104
 20
8.543751326654707
 30
0.0
 11
-0.07000000000000028
 21
0.1212435565298211
 31
0.0
210
0.0
220
0.0
230
1.0
 40
0.5773502691896188
 41
3.926990816987243
 42
6.283185307179586
  0
LINE
  5
101
330
1F
100
AcDbEntity
  8
VISIBLE
100
AcDbLine
 10
13.75635305596573
 20
8.08447199988286
 30
0.0
 11
13.75635305596573
 21
6.85972712849127
 31
0.0
  0
ELLIPSE
  5
102
330
1F
100
AcDbEntity
  8
VISIBLE
100
AcDbEllipse
 10
13.57957636066909
 20
7.676223709418998
 30
0.0
 11
0.07000000000000028
 21
-0.1212435565298229
 31
0.0
210
0.0
220
0.0
230
1.0
 40
0.5773502691896204
 41
-2.458305864736388
 42
-0.6832867888534171
  0
LINE
  5
103
330
1F
100
AcDbEntity
  8
VISIBLE
100
AcDbLine
 10
13.84474140361404
 20
8.135503036190842
 30
0.0
 11
11.7234210600544
 21
9.360247907582433
 31
0.0
  0
ELLIPSE
  5
104
330
1F
100
AcDbEntity
  8
VISIBLE
100
AcDbEllipse
 10
12.69569288418591
 20
8.084471999882862
 30
0.0
 11
0.1439999999999984
 21
-0.2494153162899169
 31
0.0
210
0.0
220
0.0
230
1.0
 40
0.5773502691896225
 41
-3.141592653589787
 42
-0.7853981633974483
  0
ELLIPSE
  5
105
330
1F
100
AcDbEntity
  8
VISIBLE
100
AcDbEllipse
 10
12.69569288418591
 20
8.084471999882862
 30
0.0
 11
-0.1440000000000019
 21
0.2494153162899178
 31
0.0
210
0.0
220
0.0
230
0.9999999999999999
 40
0.577350269189629
 41
3.141592653589776
 42
6.283185307179586
  0
ELLIPSE
  5
106
330
1F
100
AcDbEntity
  8
VISIBLE
100
AcDbEllipse
 10
12.69569288415772
 20
8.084472000005313
 30
0.0
 11
0.1440000000153212
 21
-0.2494153164197979
 31
0.0
210
0.0
220
0.0
230
1.0
 40
0.5773502691097157
 41
-0.7853981632594826
 42
0.0
  0
LINE
  5
107
330
1F
100
AcDbEntity
  8
VISIBLE
100
AcDbLine
 10
13.75635305596573
 20
6.859727128491272
 30
0.0
 11
13.84474140361404
 21
6.910758164799255
 31
0.0
  0
LINE
  5
108
330
1F
100
AcDbEntity
  8
VISIBLE
100
AcDbLine
 10
11.63503271240608
 20
9.30921687127445
 30
0.0
 11
11.7234210600544
 21
9.360247907582432
 31
0.0
  0
ELLIPSE
  5
109
330
1F
100
AcDbEntity
  8
VISIBLE
100
AcDbEllipse
 10
11.98858610299936
 20
8.594782362962688
 30
0.0
 11
0.07000000000000028
 21
-0.1212435565298193
 31
0.0
210
0.0
220
0.0
230
0.9999999999999999
 40
0.5773502691896077
 41
-2.458305864736412
 42
-0.6832867888534042
  0
ELLIPSE
  5
10A
330
1F
100
AcDbEntity
  8
VISIBLE
100
AcDbEllipse
 10
13.49118806790765
 20
7.625192615170087
 30
0.0
 11
-0.06999996118911866
 21
0.1212434893074148
 31
0.0
210
0.0
220
0.0
230
1.0
 40
0.5773504017821627
 41
3.141592423932648
 42
3.926990931815873
  0
ELLIPSE
  5
10B
330
1F
100
AcDbEntity
  8
VISIBLE
100
AcDbEllipse
 10
13.49118801302077
 20
7.625192673111012
 30
0.0
 11
0.06999999999999494
 21
-0.1212435565298255
 31
0.0
210
0.0
220
0.0
230
1.0
 40
0.5773502691896373
 41
-3.141592653589719
 42
0.0
  0
ELLIPSE
  5
10C
330
1F
100
AcDbEntity
  8
VISIBLE
100
AcDbEllipse
 10
13.49118801302077
 20
7.625192673111012
 30
0.0
 11
-0.07000000000000028
 21
0.121243556529822
 31
0.0
210
0.0
220
0.0
230
0.9999999999999998
 40
0.5773502691896549
 41
3.926990816987246
 42
6.283185307179586
  0
LINE
  5
10D
330
1F
100
AcDbEntity
  8
VISIBLE
100
AcDbLine
 10
13.84474140361404
 20
6.910758164799252
 30
0.0
 11
13.84474140361404
 21
8.135503036190842
 31
0.0
  0
LINE
  5
10E
330
1F
100
AcDbEntity
  8
VISIBLE
100
AcDbLine
 10
13.75635305596573
 20
8.08447199988286
 30
0.0
 11
13.84474140361404
 21
8.135503036190842
 31
0.0
  0
LINE
  5
10F
330
1F
100
AcDbEntity
  8
VISIBLE
100
AcDbLine
 10
13.75635305596573
 20
6.859727128491272
 30
0.0
 11
11.63503271240609
 21
8.08447199988286
 31
0.0
  0
LINE
  5
110
330
1F
100
AcDbEntity
  8
VISIBLE
100
AcDbLine
 10
11.63503271240608
 20
8.084471999882862
 30
0.0
 11
11.63503271240608
 21
9.309216871274451
 31
0.0
  0
ELLIPSE
  5
111
330
1F
100
AcDbEntity
  8
VISIBLE
100
AcDbEllipse
 10
12.76993909621049
 20
8.127338070381565
 30
0.0
 11
0.1440000000000019
 21
-0.2494153162899187
 31
0.0
210
0.0
220
0.0
230
1.0
 40
0.5773502691896243
 41
-2.880848785560929
 42
-0.2607438680288827
  0
LINE
  5
112
330
1F
100
AcDbEntity
  8
VISIBLE
100
AcDbLine
 10
11.63503271240608
 20
9.30921687127445
 30
0.0
 11
13.75635305596572
 21
8.084471999882858
 31
0.0
  0
ELLIPSE
  5
113
330
1F
100
AcDbEntity
  8
VISIBLE
100
AcDbEllipse
 10
12.78408123183422
 20
8.135503036190842
 30
0.0
 11
0.125
 21
-0.2165063509461094
 31
0.0
210
0.0
220
0.0
230
1.0
 40
0.5773502691896194
 41
-3.01903010276328
 42
-0.1225625508265211
  0
LINE
  5
114
330
1F
100
AcDbEntity
  8
VISIBLE
100
AcDbLine
 10
9.079452034056654
 20
9.870317954716693
 30
0.0
 11
6.079452034056654
 21
9.870317954716693
 31
0.0
  0
LINE
  5
115
330
1F
100
AcDbEntity
  8
VISIBLE
100
AcDbLine
 10
6.079452034056654
 20
9.120317954716693
 30
0.0
 11
9.079452034056654
 21
9.120317954716693
 31
0.0
  0
LINE
  5
116
330
1F
100
AcDbEntity
  8
VISIBLE
100
AcDbLine
 10
6.079452034056654
 20
9.120317954716693
 30
0.0
 11
6.079452034056654
 21
9.870317954716693
 31
0.0
  0
LINE
  5
117
330
1F
100
AcDbEntity
  8
VISIBLE
100
AcDbLine
 10
9.079452034056654
 20
9.120317954716693
 30
0.0
 11
9.079452034056654
 21
9.870317954716693
 31
0.0
  0
CIRCLE
  5
118
330
1F
100
AcDbEntity
  8
VISIBLE
100
AcDbCircle
 10
6.829452034056654
 20
9.495317954716693
 30
0.0
 40
0.1619999999999999
  0
CIRCLE
  5
119
330
1F
100
AcDbEntity
  8
VISIBLE
100
AcDbCircle
 10
8.329452034056654
 20
9.495317954716693
 30
0.0
 40
0.1620000000000008
  0
LINE
  5
11A
330
1F
100
AcDbEntity
  8
VISIBLE
100
AcDbLine
 10
9.079452034056654
 20
9.995317954716693
 30
0.0
 11
9.079452034056654
 21
9.870317954716693
 31
0.0
  0
LINE
  5
11B
330
1F
100
AcDbEntity
  8
VISIBLE
100
AcDbLine
 10
6.079452034056654
 20
9.870317954716693
 30
0.0
 11
9.079452034056654
 21
9.870317954716693
 31
0.0
  0
LINE
  5
11C
330
1F
100
AcDbEntity
  8
VISIBLE
100
AcDbLine
 10
9.079452034056654
 20
9.995317954716693
 30
0.0
 11
6.079452034056654
 21
9.995317954716693
 31
0.0
  0
LINE
  5
11D
330
1F
100
AcDbEntity
  8
VISIBLE
100
AcDbLine
 10
6.079452034056654
 20
9.995317954716693
 30
0.0
 11
6.079452034056654
 21
9.870317954716693
 31
0.0
  0
DIMENSION
  5
11E
330
1F
100
AcDbEntity
  8
DIMENSIONS
100
AcDbDimension
  2
D10
 10
0.0
 20
0.0
 30
0.0
 11
16.54897134135089
 21
19.70364584134315
 31
0.0
 70
    32
  1
2X <>
 71
     5
 42
-1.0
  3
Standard
100
AcDbAlignedDimension
 13
8.167452034056653
 23
9.495317954716693
 33
0.0
 14
8.491452034056655
 24
9.495317954716693
 34
0.0
100
AcDbRotatedDimension
1001
ACAD
1000
DSTYLE
1002
{
1070
    76
1070
     0
1070
    75
1070
     0
1070
   282
1070
     0
1070
   281
1070
     0
1070
    77
1070
     1
1070
    79
1070
     0
1070
    78
1070
     0
1070
   272
1070
     3
1070
   271
1070
     3
1070
   179
1070
     3
1070
   140
1040
0.0895833333333333
1070
    71
1070
     0
1070
    72
1070
     0
1070
    48
1040
0.0000787401574803
1070
    47
1040
0.0001968503937008
1002
}
  0
DIMENSION
  5
12C
330
1F
100
AcDbEntity
  8
DIMENSIONS
100
AcDbDimension
  2
D11
 10
0.0
 20
0.0
 30
0.0
 11
15.15890406811331
 21
17.80513024517866
 31
0.0
 70
    32
  1
<>
 71
     5
 42
-1.0
 53
180.0
  3
Standard
100
AcDbAlignedDimension
 13
8.329452034056654
 23
9.495317954716693
 33
0.0
 14
6.829452034056654
 24
9.495317954716693
 34
0.0
 50
180.0
100
AcDbRotatedDimension
1001
ACAD
1000
DSTYLE
1002
{
1070
    76
1070
     0
1070
    75
1070
     0
1070
   282
1070
     0
1070
   281
1070
     0
1070
    77
1070
     1
1070
    79
1070
     0
1070
    78
1070
     0
1070
   272
1070
     3
1070
   271
1070
     3
1070
   179
1070
     3
1070
   140
1040
0.0895833333333333
1070
    71
1070
     0
1070
    72
1070
     0
1070
    48
1040
0.0000787401574803
1070
    47
1040
0.0001968503937008
1002
}
  0
DIMENSION
  5
13A
330
1F
100
AcDbEntity
  8
DIMENSIONS
100
AcDbDimension
  2
D12
 10
0.0
 20
0.0
 30
0.0
 11
16.29904318982222
 21
17.80737725205304
 31
0.0
 70
    32
  1
<>
 71
     5
 42
-1.0
 53
180.0
  3
Standard
100
AcDbAlignedDimension
 13
8.329452034056654
 23
9.495317954716693
 33
0.0
 14
9.079452034056654
 24
9.120317954716693
 34
0.0
 50
180.0
100
AcDbRotatedDimension
1001
ACAD
1000
DSTYLE
1002
{
1070
    76
1070
     0
1070
    75
1070
     0
1070
   282
1070
     0
1070
   281
1070
     0
1070
    77
1070
     1
1070
    79
1070
     0
1070
    78
1070
     0
1070
   272
1070
     3
1070
   271
1070
     3
1070
   179
1070
     3
1070
   140
1040
0.0895833333333333
1070
    71
1070
     0
1070
    72
1070
     0
1070
    48
1040
0.0000787401574803
1070
    47
1040
0.0001968503937008
1002
}
  0
DIMENSION
  5
148
330
1F
100
AcDbEntity
  8
DIMENSIONS
100
AcDbDimension
  2
D13
 10
0.0
 20
0.0
 30
0.0
 11
13.13371733417661
 21
19.08838983971298
 31
0.0
 70
    32
  1
<>
 71
     5
 42
-1.0
 53
90.0
  3
Standard
100
AcDbAlignedDimension
 13
9.079452034056654
 23
9.120317954716693
 33
0.0
 14
8.329452034056654
 24
9.495317954716693
 34
0.0
 50
90.0
100
AcDbRotatedDimension
1001
ACAD
1000
DSTYLE
1002
{
1070
    76
1070
     0
1070
    75
1070
     0
1070
   282
1070
     0
1070
   281
1070
     0
1070
    77
1070
     1
1070
    79
1070
     0
1070
    78
1070
     0
1070
   272
1070
     3
1070
   271
1070
     3
1070
   179
1070
     3
1070
   140
1040
0.0895833333333333
1070
    71
1070
     0
1070
    72
1070
     0
1070
    48
1040
0.0000787401574803
1070
    47
1040
0.0001968503937008
1002
}
  0
INSERT
  5
157
330
1F
100
AcDbEntity
  8
CONTINUOUS
100
AcDbBlockReference
  2
BLOCK1
 10
0.0
 20
0.0
 30
0.0
  0
MTEXT
  5
1CD
330
1F
100
AcDbEntity
  8
CONTINUOUS
100
AcDbMText
 10
10.94599205677906
 20
0.8948103987325826
 30
0.0
 40
0.099537037037037
 41
0.0
 71
     2
 72
     1
  1
{\fArial|b0|i0|c0|p0;\C7;BEARING BLOCK AND COVER ASSEMBLY,}{\fArial|b0|i0|c0|p0;\C7;\PRADIAL}{\fArial|b0|i0|c0|p0;\C7;}
 73
     1
 44
1.0
  0
MTEXT
  5
1CE
330
1F
100
AcDbEntity
  8
CONTINUOUS
100
AcDbMText
 10
13.02615188238189
 20
1.01636039553665
 30
0.0
 40
0.099537037037037
 41
0.0
 71
     1
 72
     1
  1
{\fArial|b0|i0|c0|p0;\C7;CNC Router Parts}{\fArial|b0|i0|c0|p0;\C7;}
 73
     1
 44
1.0
  0
ENDSEC
  0
SECTION
  2
OBJECTS
  0
DICTIONARY
  5
C
330
0
100
AcDbDictionary
281
     1
  3
ACAD_GROUP
350
D
  3
ACAD_LAYOUT
350
1A
  3
ACAD_MLEADERSTYLE
350
1D2
  3
ACAD_MLINESTYLE
350
17
  3
ACAD_PLOTSETTINGS
350
19
  3
ACAD_PLOTSTYLENAME
350
E
  3
ACAD_SCALELIST
350
3B
  3
ACAD_TABLESTYLE
350
1D1
  3
ACAD_VISUALSTYLE
350
2A
  3
AcDbVariableDictionary
350
1CF
  0
DICTIONARY
  5
D
102
{ACAD_REACTORS
330
C
102
}
330
C
100
AcDbDictionary
281
     1
  0
DICTIONARY
  5
1A
102
{ACAD_REACTORS
330
C
102
}
330
C
100
AcDbDictionary
281
     1
  3
Layout1
350
1E
  3
Layout2
350
26
  3
Model
350
22
  0
DICTIONARY
  5
1D2
102
{ACAD_REACTORS
330
C
102
}
330
C
100
AcDbDictionary
281
     1
  0
DICTIONARY
  5
17
102
{ACAD_REACTORS
330
C
102
}
330
C
100
AcDbDictionary
281
     1
  3
Standard
350
18
  0
DICTIONARY
  5
19
102
{ACAD_REACTORS
330
C
102
}
330
C
100
AcDbDictionary
281
     1
  0
ACDBDICTIONARYWDFLT
  5
E
102
{ACAD_REACTORS
330
C
102
}
330
C
100
AcDbDictionary
281
     1
  3
Normal
350
F
100
AcDbDictionaryWithDefault
340
F
  0
DICTIONARY
  5
3B
102
{ACAD_REACTORS
330
C
102
}
330
C
100
AcDbDictionary
281
     1
  3
A0
350
3C
  3
A1
350
3D
  3
A2
350
3E
  3
A3
350
3F
  3
A4
350
40
  3
A5
350
41
  3
A6
350
42
  3
A7
350
43
  3
A8
350
44
  3
A9
350
45
  3
B0
350
46
  3
B1
350
47
  3
B2
350
48
  3
B3
350
49
  3
B4
350
4A
  3
B5
350
4B
  3
B6
350
4C
  3
B7
350
4D
  3
B8
350
4E
  3
B9
350
4F
  3
C0
350
50
  3
C1
350
51
  3
C2
350
52
  3
C3
350
53
  3
C4
350
54
  3
C5
350
55
  3
C6
350
56
  3
C7
350
57
  3
C8
350
58
  3
C9
350
59
  3
D0
350
5A
  3
D1
350
5B
  3
D2
350
5C
  0
DICTIONARY
  5
1D1
102
{ACAD_REACTORS
330
C
102
}
330
C
100
AcDbDictionary
281
     1
  0
DICTIONARY
  5
2A
102
{ACAD_REACTORS
330
C
102
}
330
C
100
AcDbDictionary
281
     1
  3
2dWireframe
350
2F
  3
3D Hidden
350
31
  3
3dWireframe
350
30
  3
Basic
350
32
  3
Brighten
350
36
  3
ColorChange
350
3A
  3
Conceptual
350
34
  3
Dim
350
35
  3
Facepattern
350
39
  3
Flat
350
2B
  3
FlatWithEdges
350
2C
  3
Gouraud
350
2D
  3
GouraudWithEdges
350
2E
  3
Linepattern
350
38
  3
Realistic
350
33
  3
Thicken
350
37
  0
DICTIONARY
  5
1CF
102
{ACAD_REACTORS
330
C
102
}
330
C
100
AcDbDictionary
281
     1
  3
CANNOSCALE
350
1D0
  0
LAYOUT
  5
1E
102
{ACAD_REACTORS
330
1A
102
}
330
1A
100
AcDbPlotSettings
  1

  2
none_device
  4

  6

 40
0.0
 41
0.0
 42
0.0
 43
0.0
 44
0.0
 45
0.0
 46
0.0
 47
0.0
 48
0.0
 49
0.0
140
0.0
141
0.0
142
1.0
143
1.0
 70
   688
 72
     0
 73
     0
 74
     5
  7

 75
    16
147
1.0
148
0.0
149
0.0
100
AcDbLayout
  1
Layout1
 70
     1
 71
     1
 10
0.0
 20
0.0
 11
12.0
 21
9.0
 12
0.0
 22
0.0
 32
0.0
 14
1.000000000000000E+20
 24
1.000000000000000E+20
 34
1.000000000000000E+20
 15
-1.000000000000000E+20
 25
-1.000000000000000E+20
 35
-1.000000000000000E+20
146
0.0
 13
0.0
 23
0.0
 33
0.0
 16
1.0
 26
0.0
 36
0.0
 17
0.0
 27
1.0
 37
0.0
 76
     0
330
1B
  0
LAYOUT
  5
26
102
{ACAD_REACTORS
330
1A
102
}
330
1A
100
AcDbPlotSettings
  1

  2
none_device
  4

  6

 40
0.0
 41
0.0
 42
0.0
 43
0.0
 44
0.0
 45
0.0
 46
0.0
 47
0.0
 48
0.0
 49
0.0
140
0.0
141
0.0
142
1.0
143
1.0
 70
   688
 72
     0
 73
     0
 74
     5
  7

 75
    16
147
1.0
148
0.0
149
0.0
100
AcDbLayout
  1
Layout2
 70
     1
 71
     2
 10
0.0
 20
0.0
 11
0.0
 21
0.0
 12
0.0
 22
0.0
 32
0.0
 14
0.0
 24
0.0
 34
0.0
 15
0.0
 25
0.0
 35
0.0
146
0.0
 13
0.0
 23
0.0
 33
0.0
 16
1.0
 26
0.0
 36
0.0
 17
0.0
 27
1.0
 37
0.0
 76
     0
330
23
  0
LAYOUT
  5
22
102
{ACAD_REACTORS
330
1A
102
}
330
1A
100
AcDbPlotSettings
  1

  2
none_device
  4

  6

 40
0.0
 41
0.0
 42
0.0
 43
0.0
 44
0.0
 45
0.0
 46
0.0
 47
0.0
 48
0.0
 49
0.0
140
0.0
141
0.0
142
1.0
143
1.0
 70
  1712
 72
     0
 73
     0
 74
     0
  7

 75
     0
147
1.0
148
0.0
149
0.0
100
AcDbLayout
  1
Model
 70
     1
 71
     0
 10
0.0
 20
0.0
 11
12.0
 21
9.0
 12
0.0
 22
0.0
 32
0.0
 14
1.000000000000000E+20
 24
1.000000000000000E+20
 34
1.000000000000000E+20
 15
-1.000000000000000E+20
 25
-1.000000000000000E+20
 35
-1.000000000000000E+20
146
0.0
 13
0.0
 23
0.0
 33
0.0
 16
1.0
 26
0.0
 36
0.0
 17
0.0
 27
1.0
 37
0.0
 76
     0
330
1F
331
29
  0
MLINESTYLE
  5
18
102
{ACAD_REACTORS
330
17
102
}
330
17
100
AcDbMlineStyle
  2
Standard
 70
     0
  3

 62
   256
 51
90.0
 52
90.0
 71
     2
 49
0.5
 62
   256
  6
BYLAYER
 49
-0.5
 62
   256
  6
BYLAYER
  0
ACDBPLACEHOLDER
  5
F
102
{ACAD_REACTORS
330
E
102
}
330
E
  0
SCALE
  5
3C
102
{ACAD_REACTORS
330
3B
102
}
330
3B
100
AcDbScale
 70
     0
300
1:1
140
1.0
141
1.0
290
     1
  0
SCALE
  5
3D
102
{ACAD_REACTORS
330
3B
102
}
330
3B
100
AcDbScale
 70
     0
300
1:2
140
1.0
141
2.0
290
     0
  0
SCALE
  5
3E
102
{ACAD_REACTORS
330
3B
102
}
330
3B
100
AcDbScale
 70
     0
300
1:4
140
1.0
141
4.0
290
     0
  0
SCALE
  5
3F
102
{ACAD_REACTORS
330
3B
102
}
330
3B
100
AcDbScale
 70
     0
300
1:5
140
1.0
141
5.0
290
     0
  0
SCALE
  5
40
102
{ACAD_REACTORS
330
3B
102
}
330
3B
100
AcDbScale
 70
     0
300
1:8
140
1.0
141
8.0
290
     0
  0
SCALE
  5
41
102
{ACAD_REACTORS
330
3B
102
}
330
3B
100
AcDbScale
 70
     0
300
1:10
140
1.0
141
10.0
290
     0
  0
SCALE
  5
42
102
{ACAD_REACTORS
330
3B
102
}
330
3B
100
AcDbScale
 70
     0
300
1:16
140
1.0
141
16.0
290
     0
  0
SCALE
  5
43
102
{ACAD_REACTORS
330
3B
102
}
330
3B
100
AcDbScale
 70
     0
300
1:20
140
1.0
141
20.0
290
     0
  0
SCALE
  5
44
102
{ACAD_REACTORS
330
3B
102
}
330
3B
100
AcDbScale
 70
     0
300
1:30
140
1.0
141
30.0
290
     0
  0
SCALE
  5
45
102
{ACAD_REACTORS
330
3B
102
}
330
3B
100
AcDbScale
 70
     0
300
1:40
140
1.0
141
40.0
290
     0
  0
SCALE
  5
46
102
{ACAD_REACTORS
330
3B
102
}
330
3B
100
AcDbScale
 70
     0
300
1:50
140
1.0
141
50.0
290
     0
  0
SCALE
  5
47
102
{ACAD_REACTORS
330
3B
102
}
330
3B
100
AcDbScale
 70
     0
300
1:100
140
1.0
141
100.0
290
     0
  0
SCALE
  5
48
102
{ACAD_REACTORS
330
3B
102
}
330
3B
100
AcDbScale
 70
     0
300
2:1
140
2.0
141
1.0
290
     0
  0
SCALE
  5
49
102
{ACAD_REACTORS
330
3B
102
}
330
3B
100
AcDbScale
 70
     0
300
4:1
140
4.0
141
1.0
290
     0
  0
SCALE
  5
4A
102
{ACAD_REACTORS
330
3B
102
}
330
3B
100
AcDbScale
 70
     0
300
8:1
140
8.0
141
1.0
290
     0
  0
SCALE
  5
4B
102
{ACAD_REACTORS
330
3B
102
}
330
3B
100
AcDbScale
 70
     0
300
10:1
140
10.0
141
1.0
290
     0
  0
SCALE
  5
4C
102
{ACAD_REACTORS
330
3B
102
}
330
3B
100
AcDbScale
 70
     0
300
100:1
140
100.0
141
1.0
290
     0
  0
SCALE
  5
4D
102
{ACAD_REACTORS
330
3B
102
}
330
3B
100
AcDbScale
 70
     0
300
1/128" = 1'-0"
140
0.0078125
141
12.0
290
     0
  0
SCALE
  5
4E
102
{ACAD_REACTORS
330
3B
102
}
330
3B
100
AcDbScale
 70
     0
300
1/64" = 1'-0"
140
0.015625
141
12.0
290
     0
  0
SCALE
  5
4F
102
{ACAD_REACTORS
330
3B
102
}
330
3B
100
AcDbScale
 70
     0
300
1/32" = 1'-0"
140
0.03125
141
12.0
290
     0
  0
SCALE
  5
50
102
{ACAD_REACTORS
330
3B
102
}
330
3B
100
AcDbScale
 70
     0
300
1/16" = 1'-0"
140
0.0625
141
12.0
290
     0
  0
SCALE
  5
51
102
{ACAD_REACTORS
330
3B
102
}
330
3B
100
AcDbScale
 70
     0
300
3/32" = 1'-0"
140
0.09375
141
12.0
290
     0
  0
SCALE
  5
52
102
{ACAD_REACTORS
330
3B
102
}
330
3B
100
AcDbScale
 70
     0
300
1/8" = 1'-0"
140
0.125
141
12.0
290
     0
  0
SCALE
  5
53
102
{ACAD_REACTORS
330
3B
102
}
330
3B
100
AcDbScale
 70
     0
300
3/16" = 1'-0"
140
0.1875
141
12.0
290
     0
  0
SCALE
  5
54
102
{ACAD_REACTORS
330
3B
102
}
330
3B
100
AcDbScale
 70
     0
300
1/4" = 1'-0"
140
0.25
141
12.0
290
     0
  0
SCALE
  5
55
102
{ACAD_REACTORS
330
3B
102
}
330
3B
100
AcDbScale
 70
     0
300
3/8" = 1'-0"
140
0.375
141
12.0
290
     0
  0
SCALE
  5
56
102
{ACAD_REACTORS
330
3B
102
}
330
3B
100
AcDbScale
 70
     0
300
1/2" = 1'-0"
140
0.5
141
12.0
290
     0
  0
SCALE
  5
57
102
{ACAD_REACTORS
330
3B
102
}
330
3B
100
AcDbScale
 70
     0
300
3/4" = 1'-0"
140
0.75
141
12.0
290
     0
  0
SCALE
  5
58
102
{ACAD_REACTORS
330
3B
102
}
330
3B
100
AcDbScale
 70
     0
300
1" = 1'-0"
140
1.0
141
12.0
290
     0
  0
SCALE
  5
59
102
{ACAD_REACTORS
330
3B
102
}
330
3B
100
AcDbScale
 70
     0
300
1-1/2" = 1'-0"
140
1.5
141
12.0
290
     0
  0
SCALE
  5
5A
102
{ACAD_REACTORS
330
3B
102
}
330
3B
100
AcDbScale
 70
     0
300
3" = 1'-0"
140
3.0
141
12.0
290
     0
  0
SCALE
  5
5B
102
{ACAD_REACTORS
330
3B
102
}
330
3B
100
AcDbScale
 70
     0
300
6" = 1'-0"
140
6.0
141
12.0
290
     0
  0
SCALE
  5
5C
102
{ACAD_REACTORS
330
3B
102
}
330
3B
100
AcDbScale
 70
     0
300
1'-0" = 1'-0"
140
12.0
141
12.0
290
     0
  0
VISUALSTYLE
  5
2F
102
{ACAD_REACTORS
330
2A
102
}
330
2A
100
AcDbVisualStyle
  2
2dWireframe
 70
     4
 71
     0
 72
     2
 73
     0
 90
        0
 40
-0.6
 41
-30.0
 62
     5
 63
     7
 74
     1
 91
        4
 64
     7
 65
   257
 75
     1
175
     1
 42
1.0
 92
        0
 66
   257
 43
1.0
 76
     1
 77
     6
 78
     2
 67
     7
 79
     5
170
     0
171
     0
290
     0
174
     0
 93
        1
 44
0.0
173
     0
291
     0
 45
0.0
1001
ACAD
1000
AcDbSavedByObjectVersion
1070
     0
  0
VISUALSTYLE
  5
31
102
{ACAD_REACTORS
330
2A
102
}
330
2A
100
AcDbVisualStyle
  2
3D Hidden
 70
     6
 71
     1
 72
     2
 73
     2
 90
        0
 40
-0.6
 41
-30.0
 62
     5
 63
     7
 74
     2
 91
        2
 64
     7
 65
   257
 75
     2
175
     1
 42
40.0
 92
        0
 66
   257
 43
1.0
 76
     1
 77
     6
 78
     2
 67
     7
 79
     3
170
     0
171
     0
290
     0
174
     0
 93
        1
 44
0.0
173
     0
291
     0
 45
0.0
1001
ACAD
1000
AcDbSavedByObjectVersion
1070
     0
  0
VISUALSTYLE
  5
30
102
{ACAD_REACTORS
330
2A
102
}
330
2A
100
AcDbVisualStyle
  2
3dWireframe
 70
     5
 71
     0
 72
     2
 73
     0
 90
        0
 40
-0.6
 41
-30.0
 62
     5
 63
     7
 74
     1
 91
        4
 64
     7
 65
   257
 75
     1
175
     1
 42
1.0
 92
        0
 66
   257
 43
1.0
 76
     1
 77
     6
 78
     2
 67
     7
 79
     5
170
     0
171
     0
290
     0
174
     0
 93
        1
 44
0.0
173
     0
291
     0
 45
0.0
1001
ACAD
1000
AcDbSavedByObjectVersion
1070
     0
  0
VISUALSTYLE
  5
32
102
{ACAD_REACTORS
330
2A
102
}
330
2A
100
AcDbVisualStyle
  2
Basic
 70
     7
 71
     1
 72
     0
 73
     1
 90
        0
 40
-0.6
 41
-30.0
 62
     5
 63
     7
 74
     0
 91
        4
 64
     7
 65
   257
 75
     1
175
     1
 42
1.0
 92
        8
 66
     7
 43
1.0
 76
     1
 77
     6
 78
     2
 67
     7
 79
     5
170
     0
171
     0
290
     0
174
     0
 93
        1
 44
0.0
173
     0
291
     1
 45
0.0
1001
ACAD
1000
AcDbSavedByObjectVersion
1070
     0
  0
VISUALSTYLE
  5
36
102
{ACAD_REACTORS
330
2A
102
}
330
2A
100
AcDbVisualStyle
  2
Brighten
 70
    12
 71
     2
 72
     2
 73
     0
 90
        0
 40
-0.6
 41
-30.0
 62
     5
 63
     7
 74
     1
 91
        4
 64
     7
 65
   257
 75
     1
175
     1
 42
1.0
 92
        8
 66
     7
 43
1.0
 76
     1
 77
     6
 78
     2
 67
     7
 79
     5
170
     0
171
     0
290
     0
174
     0
 93
        1
 44
50.0
173
     0
291
     1
 45
0.0
1001
ACAD
1000
AcDbSavedByObjectVersion
1070
     0
  0
VISUALSTYLE
  5
3A
102
{ACAD_REACTORS
330
2A
102
}
330
2A
100
AcDbVisualStyle
  2
ColorChange
 70
    16
 71
     2
 72
     2
 73
     3
 90
        0
 40
-0.6
 41
-30.0
 62
     5
 63
     8
 74
     1
 91
        4
 64
     7
 65
   257
 75
     1
175
     1
 42
1.0
 92
        8
 66
     8
 43
1.0
 76
     1
 77
     6
 78
     2
 67
     7
 79
     5
170
     0
171
     0
290
     0
174
     0
 93
        1
 44
0.0
173
     0
291
     1
 45
0.0
1001
ACAD
1000
AcDbSavedByObjectVersion
1070
     0
  0
VISUALSTYLE
  5
34
102
{ACAD_REACTORS
330
2A
102
}
330
2A
100
AcDbVisualStyle
  2
Conceptual
 70
     9
 71
     3
 72
     2
 73
     0
 90
        0
 40
-0.6
 41
-30.0
 62
     5
 63
     7
 74
     2
 91
        2
 64
     7
 65
   257
 75
     1
175
     1
 42
40.0
 92
        8
 66
     7
 43
1.0
 76
     1
 77
     6
 78
     2
 67
     7
 79
     3
170
     0
171
     0
290
     0
174
     0
 93
        1
 44
0.0
173
     0
291
     0
 45
0.0
1001
ACAD
1000
AcDbSavedByObjectVersion
1070
     0
  0
VISUALSTYLE
  5
35
102
{ACAD_REACTORS
330
2A
102
}
330
2A
100
AcDbVisualStyle
  2
Dim
 70
    11
 71
     2
 72
     2
 73
     0
 90
        0
 40
-0.6
 41
-30.0
 62
     5
 63
     7
 74
     1
 91
        4
 64
     7
 65
   257
 75
     1
175
     1
 42
1.0
 92
        8
 66
     7
 43
1.0
 76
     1
 77
     6
 78
     2
 67
     7
 79
     5
170
     0
171
     0
290
     0
174
     0
 93
        1
 44
-50.0
173
     0
291
     1
 45
0.0
1001
ACAD
1000
AcDbSavedByObjectVersion
1070
     0
  0
VISUALSTYLE
  5
39
102
{ACAD_REACTORS
330
2A
102
}
330
2A
100
AcDbVisualStyle
  2
Facepattern
 70
    15
 71
     2
 72
     2
 73
     0
 90
        0
 40
-0.6
 41
-30.0
 62
     5
 63
     7
 74
     1
 91
        4
 64
     7
 65
   257
 75
     1
175
     1
 42
1.0
 92
        8
 66
     7
 43
1.0
 76
     1
 77
     6
 78
     2
 67
     7
 79
     5
170
     0
171
     0
290
     0
174
     0
 93
        1
 44
0.0
173
     0
291
     1
 45
0.0
1001
ACAD
1000
AcDbSavedByObjectVersion
1070
     0
  0
VISUALSTYLE
  5
2B
102
{ACAD_REACTORS
330
2A
102
}
330
2A
100
AcDbVisualStyle
  2
Flat
 70
     0
 71
     2
 72
     1
 73
     1
 90
        2
 40
-0.6
 41
30.0
 62
     5
 63
     7
 74
     0
 91
        4
 64
     7
 65
   257
 75
     1
175
     1
 42
1.0
 92
        8
 66
     7
 43
1.0
 76
     1
 77
     6
 78
     2
 67
     7
 79
     5
170
     0
171
     0
290
     0
174
     0
 93
       13
 44
0.0
173
     0
291
     1
 45
0.0
1001
ACAD
1000
AcDbSavedByObjectVersion
1070
     0
  0
VISUALSTYLE
  5
2C
102
{ACAD_REACTORS
330
2A
102
}
330
2A
100
AcDbVisualStyle
  2
FlatWithEdges
 70
     1
 71
     2
 72
     1
 73
     1
 90
        2
 40
-0.6
 41
30.0
 62
     5
 63
     7
 74
     1
 91
        4
 64
     7
 65
   257
 75
     1
175
     1
 42
1.0
 92
        0
 66
   257
 43
1.0
 76
     1
 77
     6
 78
     2
 67
     7
 79
     5
170
     0
171
     0
290
     0
174
     0
 93
       13
 44
0.0
173
     0
291
     1
 45
0.0
1001
ACAD
1000
AcDbSavedByObjectVersion
1070
     0
  0
VISUALSTYLE
  5
2D
102
{ACAD_REACTORS
330
2A
102
}
330
2A
100
AcDbVisualStyle
  2
Gouraud
 70
     2
 71
     2
 72
     2
 73
     1
 90
        2
 40
-0.6
 41
30.0
 62
     5
 63
     7
 74
     0
 91
        4
 64
     7
 65
   257
 75
     1
175
     1
 42
1.0
 92
        0
 66
     7
 43
1.0
 76
     1
 77
     6
 78
     2
 67
     7
 79
     5
170
     0
171
     0
290
     0
174
     0
 93
       13
 44
0.0
173
     0
291
     1
 45
0.0
1001
ACAD
1000
AcDbSavedByObjectVersion
1070
     0
  0
VISUALSTYLE
  5
2E
102
{ACAD_REACTORS
330
2A
102
}
330
2A
100
AcDbVisualStyle
  2
GouraudWithEdges
 70
     3
 71
     2
 72
     2
 73
     1
 90
        2
 40
-0.6
 41
30.0
 62
     5
 63
     7
 74
     1
 91
        4
 64
     7
 65
   257
 75
     1
175
     1
 42
1.0
 92
        0
 66
   257
 43
1.0
 76
     1
 77
     6
 78
     2
 67
     7
 79
     5
170
     0
171
     0
290
     0
174
     0
 93
       13
 44
0.0
173
     0
291
     1
 45
0.0
1001
ACAD
1000
AcDbSavedByObjectVersion
1070
     0
  0
VISUALSTYLE
  5
38
102
{ACAD_REACTORS
330
2A
102
}
330
2A
100
AcDbVisualStyle
  2
Linepattern
 70
    14
 71
     2
 72
     2
 73
     0
 90
        0
 40
-0.6
 41
-30.0
 62
     5
 63
     7
 74
     1
 91
        4
 64
     7
 65
   257
 75
     7
175
     7
 42
1.0
 92
        8
 66
     7
 43
1.0
 76
     1
 77
     6
 78
     2
 67
     7
 79
     5
170
     0
171
     0
290
     0
174
     0
 93
        1
 44
0.0
173
     0
291
     1
 45
0.0
1001
ACAD
1000
AcDbSavedByObjectVersion
1070
     0
  0
VISUALSTYLE
  5
33
102
{ACAD_REACTORS
330
2A
102
}
330
2A
100
AcDbVisualStyle
  2
Realistic
 70
     8
 71
     2
 72
     2
 73
     0
 90
        0
 40
-0.6
 41
-30.0
 62
     5
 63
     7
 74
     1
 91
        0
 64
     7
 65
   257
 75
     1
175
     1
 42
1.0
 92
        8
 66
     8
 43
1.0
 76
     1
 77
     6
 78
     2
 67
     7
 79
     5
170
     0
171
     0
290
     0
174
     0
 93
       13
 44
0.0
173
     0
291
     0
 45
0.0
1001
ACAD
1000
AcDbSavedByObjectVersion
1070
     0
  0
VISUALSTYLE
  5
37
102
{ACAD_REACTORS
330
2A
102
}
330
2A
100
AcDbVisualStyle
  2
Thicken
 70
    13
 71
     2
 72
     2
 73
     0
 90
        0
 40
-0.6
 41
-30.0
 62
     5
 63
     7
 74
     1
 91
        4
 64
     7
 65
   257
 75
     1
175
     1
 42
1.0
 92
       12
 66
     7
 43
1.0
 76
     1
 77
     6
 78
     2
 67
     7
 79
     5
170
     0
171
     0
290
     0
174
     0
 93
        1
 44
0.0
173
     0
291
     1
 45
0.0
1001
ACAD
1000
AcDbSavedByObjectVersion
1070
     0
  0
DICTIONARYVAR
  5
1D0
102
{ACAD_REACTORS
330
1CF
102
}
330
1CF
100
DictionaryVariables
280
     0
  1
1:1
  0
ENDSEC
  0
EOF
